Browse Collections Artists Sources   Search Dates

Add Show    List Management    Help


Grateful Dead 08/22/93
Autzen Stadium, University of Oregon, Eugene, OR
Comments Add Comment    Source Collectors    Add to Collection    Add to Want List    History
Source # 141062 Other Sources
Entered by Matt Vernon
Checksums ffp , flac-md5
Disc Counts 0 / 0
Media Size
Date Circulated
Date Added

02/17/2018
Source Summary flac16/44.1 Source Info: FOB Schoeps CMC 3 MK2(Omni) (Spaced)-> Oade P/S-> Panasonic SV255-> DAT Transfer Info: Dat (Panasonic SV-3700)-> Marantz CDR-615-> CD (Late 90's) Extract Wav-> Flac Level 8-> Tagged (16/44.1) Transfers by Pete Ebel 
  Archive
Source Information - Download Text | Download Zip
Grateful Dead
Autzen Stadium - Eugene - OR
August 22, 1993

Source Info:
FOB Schoeps CMC 3 MK2(Omni) (Spaced)-> Oade P/S-> Panasonic SV255-> DAT

Transfer Info:
Dat (Panasonic SV-3700)-> Marantz CDR-615-> CD (Late 90's)
Extract Wav-> Flac Level 8-> Tagged (16/44.1)


Transfers by Pete Ebel
Late 90's and January 19, 2018


Notes:
Believed to be Same Mic setup as #82529 & 82637. This copy is free of the skips during
Bertha and also has 10 Seconds of Liberty that was clipped on previous verions.
Set #2 is Seamless



Set #1:
01. Tuning
02. Jack Staw
03. Bertha
04. Little Red Rooster
05. Broken Arrow
06. Althea
07. Masterpiece
08. Tennessee Jed
09. Music Never Stopped

Set #2:
10. Help On The Way
11. Slip Knot!
12. Franklins Tower
13. Samson & Delilah
14. Ship Of Fool's
15. Corrina
16. Drumz
17. Space
18. The Wheel
19. I Need A Miracle
20. The Days Between
21. Not Fade Away

Encore:
22. Liberty




SHNTOOL OUTPUT:
    length     expanded size    cdr  WAVE problems  fmt   ratio  filename
     2:55.30       30940604 B   ---   --   ---xx   flac  0.3569  01 Tuning.flac
     9:13.72       97718588 B   ---   --   ---xx   flac  0.6452  02 Jack Straw.flac
     8:05.30       85624604 B   ---   --   ---xx   flac  0.6432  03 Bertha.flac
     9:28.55      100324604 B   ---   --   ---xx   flac  0.6080  04 Little Red Rooster.flac
     5:24.33       57231260 B   ---   --   ---xx   flac  0.6231  05 Broken Arrow.flac
     8:02.58       85161260 B   ---   --   ---xx   flac  0.6277  06 Althea.flac
     5:44.22       60733388 B   ---   --   ---xx   flac  0.6168  07 Masterpiece.flac
     8:42.29       92149052 B   ---   --   ---xx   flac  0.6109  08 Tennessee Jed.flac
     8:34.25       90728444 B   ---   --   ---xx   flac  0.6259  09 Music Never Stopped.flac
     8:23.46       88837436 B   ---   --   ---xx   flac  0.6158  10 Help On The Way.flac
     1:31.12       16080668 B   ---   --   ---xx   flac  0.6306  11 Slip Knot!.flac
    11:57.05      126490604 B   ---   --   ---xx   flac  0.6562  12 Franklin's Tower.flac
     6:45.61       71585516 B   ---   --   ---xx   flac  0.6511  13 Samson & Delilah.flac
     7:54.70       83778284 B   ---   --   ---xx   flac  0.6308  14 Ship Of Fool's.flac
     9:07.20       96537884 B   ---   --   ---xx   flac  0.6658  15 Corrina.flac
    20:51.43      220777580 B   ---   --   ---xx   flac  0.5369  16 Drumz.flac
    12:53.22      136408988 B   ---   --   ---xx   flac  0.5049  17 Space.flac
     6:49.11       72173516 B   ---   --   ---xx   flac  0.6397  18 The Wheel.flac
     4:15.43       45083180 B   ---   --   ---xx   flac  0.6678  19 I Need A Miracle.flac
    10:50.40      114754124 B   ---   --   ---xx   flac  0.6104  20 The Days Between.flac
    11:41.07      123672908 B   ---   --   ---xx   flac  0.5937  21 Not Fade Away.flac
     6:25.71       68081036 B   ---   --   ---xx   flac  0.6282  22 Liberty.flac
   185:38.55     1964873528 B                            0.6063  (22 files)



Show Checksums
ffp
01 Tuning.flac:8bdee6cf6a08dfa9451e39212f974d27
02 Jack Straw.flac:5824dd2311a221e9981285d75d3304f5
03 Bertha.flac:9c08ae8ff761e12979ae08d3a8746cdb
04 Little Red Rooster.flac:c4e6722b10ccdba6d34651d623209076
05 Broken Arrow.flac:b44d259cd5b83b64de314eafb7e03d2f
06 Althea.flac:d899332fc5de70df1a83d508d5daaef1
07 Masterpiece.flac:738876a409a3c0037bbc90cc08e61fd0
08 Tennessee Jed.flac:f6a6bef33f8ff2bfd90a891ead28107d
09 Music Never Stopped.flac:fc3d855b87956929dce7bc2ebc570beb
10 Help On The Way.flac:26ec0629fbae84c677a33598b58573c0
11 Slip Knot!.flac:3a60e395a2bf3200162f3472a884606e
12 Franklin's Tower.flac:284c3d1c87e4680c1783a5c42f941b92
13 Samson & Delilah.flac:74ba094bd2d9f0d5b0fe9050d20508c7
14 Ship Of Fool's.flac:d1848853b3e33e8f72439ee58ad18250
15 Corrina.flac:378583cd57546e3b08d807fd53977f6e
16 Drumz.flac:e81688e63b1ae4213509174d377b83b7
17 Space.flac:ce57406add3ff08ed60c6125b13272f2
18 The Wheel.flac:442d4c6248154a17565c4e1730be3bbe
19 I Need A Miracle.flac:1224ce922d01f2669b6455d377d076d1
20 The Days Between.flac:3f4eb1b060be9dd8bbf6a11b3fc5d898
21 Not Fade Away.flac:c90744ef083f985cdd025a3732b177a9
22 Liberty.flac:13a042a53bea8f695260a1301c7f109f
flac-md5
a2f6f85a622511d7c83592d540078d22 *01 Tuning.flac
2afb5fc91b6a95de6e4bb060ef52394c *02 Jack Straw.flac
eb6646e50f2afd53283dbe4859278ddd *03 Bertha.flac
6b3b94522797cccfcd2b65c04c4ad167 *04 Little Red Rooster.flac
382e7dd8c21222e7a35c49046d02ee7b *05 Broken Arrow.flac
d323bd3445cf94bf11b41202a7c7a19a *06 Althea.flac
f6df6f8bc017e631cb473cf6c03c8264 *07 Masterpiece.flac
f332a6b5c9ccdc291c53135e7e9d0d6e *08 Tennessee Jed.flac
a68c8d5c8fa1a80ad1db0a1e63691687 *09 Music Never Stopped.flac
c5f3087fa2eac356b18386a19fcc2ff9 *10 Help On The Way.flac
3126f1550e7093c66bb0da7375896500 *11 Slip Knot!.flac
2ed57d04af603eaa30d3dc43b348d8e7 *12 Franklin's Tower.flac
3b73f87270324fbc680fefdbfadac7ff *13 Samson & Delilah.flac
95bfeb054f48672e605e26e92990c622 *14 Ship Of Fool's.flac
216725fff9a0c97802a1bdf404ff4d2a *15 Corrina.flac
93907833480a37b32236f2fc48b0cbab *16 Drumz.flac
be4fc0d02dc469aeb13d23b0cc018035 *17 Space.flac
534a5ab8d81952c98e025c73b7879453 *18 The Wheel.flac
fbf64c79da316ba15c9a85f56f2194da *19 I Need A Miracle.flac
08975955e324b77ba2f490bc97db4258 *20 The Days Between.flac
b22970737a36e4272c2de6d535069f8f *21 Not Fade Away.flac
147d723a7a585a4e70e40cfe3098d4a9 *22 Liberty.flac

Comments
Add Comment
Other Sources (comments)
SBD> DAT> CD> EAC> Cool... (4) flac16; Digital FOB... (1) flac16/48; Digital... (0) flac16; AKG... (0) flac16; matrix of... (1) flac16; Source: 2... (0) flac16/48kHz;... (0)
Date User Comment