Browse Collections Artists Sources   Search Dates

Add Show    List Management    Help


Grateful Dead 01/24/93
Oakland-Alameda County Coliseum, Oakland, CA
Comments Add Comment    Source Collectors    Add to Collection    Add to Want List    History
Source # 141070 Other Sources
Entered by Matt Vernon
Checksums ffp , flac-md5
Disc Counts 0 / 0
Media Size
Date Circulated
Date Added

02/17/2018
Source Summary flac16/44.1 set 2 only. Source Info: FOB Schoeps CMC3 Mk4-> DAT Transfer Info: Dat Tape (Panasonic SV-3700)-> Marantz CDR-615-> CD (Late 90's) Extract Wav-> Flac Level 8-> Tagged (16/44.1) Transfers by Pete Ebel 
  Archive
Source Information - Download Text | Download Zip
Grateful Dead
Oakland Coliseum - Oakland - CA
January 24, 1993

Source Info:
FOB Schoeps CMC3 Mk4-> DAT

**Set #2 Only**

Transfer Info:
Dat Tape (Panasonic SV-3700)-> Marantz CDR-615-> CD (Late 90's)
Extract Wav-> Flac Level 8-> Tagged (16/44.1)


Transfers by Pete Ebel
Late 90's and February 10, 2018


Notes:
* Tuning and first :45 of Playing supplied by #85009 and also a Patches couple
  dropouts in the first couple of Mins of Playing.
* Very nice recording...

* Set #2 is Seamless




Set #2:
2-01 Tuning
2-02 Playing In The Bnad
2-03 Crazy Fingers
2-04 Samson & Delilah
2-05 He's Gone
2-06 Drumz
3-01 Space
3-02 The Last Time
3-03 Black Peter
3-04 Sugar Magnolia
3-05 Sunshine Daydream

Encore:
3-06 Knockin' On Heavens Door




SHNTOOL OUTPUT:
    length     expanded size    cdr  WAVE problems  fmt   ratio  filename
     1:19.24       13992092 B   ---   --   ---xx   flac  0.4589  2-01 Tuning.flac
     7:46.63       82350620 B   ---   --   ---xx   flac  0.5689  2-02 Playing In The Band.flac
     7:49.00       82731644 B   ---   --   ---xx   flac  0.5376  2-03 Crazy Fingers.flac
     7:25.14       78530972 B   ---   --   ---xx   flac  0.6076  2-04 Samon & Delilah.flac
    13:35.41      143862476 B   ---   --   ---xx   flac  0.5318  2-05 He's Gone.flac
     2:29.05       26295404 B   ---   --   ---xx   flac  0.5246  2-06 Drumz.flac
    19:00.24      201152492 B   ---   --   ---xx   flac  0.3825  3-01 Space.flac
     6:38.01       70209596 B   ---   --   ---xx   flac  0.5671  3-02 The Last Time.flac
    10:35.71      112181036 B   ---   --   ---xx   flac  0.5492  3-03 Black Peter.flac
     6:12.74       65794892 B   ---   --   ---xx   flac  0.6141  3-04 Sugar Magnolia.flac
     5:17.69       56081132 B   ---   --   ---xx   flac  0.5597  3-05 Sunshine Daydream.flac
     6:46.66       71773676 B   ---   --   ---xx   flac  0.4964  3-06 Knockin' On Heavens Door.flac
    94:57.02     1004956032 B                            0.5190  (12 files)


Show Checksums
ffp
2-01 Tuning.flac:14e3c1069609a7b7eeabfc48d1976cf8
2-02 Playing In The Band.flac:560fc4125f589df4f0267182f63b3d9d
2-03 Crazy Fingers.flac:eca592289c9e065de750cefc1b4d9e14
2-04 Samon & Delilah.flac:9982ad1fdb0ded050cd7305461bdd16c
2-05 He's Gone.flac:f50b1a391b59917e555d1873f72aaad4
2-06 Drumz.flac:e857aa1d29dbc9f11aa6b6bba6793687
3-01 Space.flac:328be0cbd24be238cb4ed625ed332f50
3-02 The Last Time.flac:f5d57606cb92915f7698e40257e8e1d5
3-03 Black Peter.flac:2d710af9e2a88924bc69c4c14318b90c
3-04 Sugar Magnolia.flac:8b07ca7ae4a9b5ac593d305206412762
3-05 Sunshine Daydream.flac:fb480151c03c669457eb58dca26267c7
3-06 Knockin' On Heavens Door.flac:4ab2209cd11836a40979e786515dc064
flac-md5
b4c1feec3a782b9ef6c163bc109aba5b *2-01 Tuning.flac
06fdb01f4baa43ea24da24b3b4c63189 *2-02 Playing In The Band.flac
32074bfa9bf7366b622fabca2a8dc638 *2-03 Crazy Fingers.flac
ad8605b2dd4acdc8d896c6515c2a1cae *2-04 Samon & Delilah.flac
69a11e9e84983875f06adf0c985227b2 *2-05 He's Gone.flac
928c333dcceebd96adab6cae644bc818 *2-06 Drumz.flac
85ae171ca0a157c4f83e4c2802f6f49d *3-01 Space.flac
f00e958c75ed520f3147438c2242bad7 *3-02 The Last Time.flac
9530d1af0a7b5e5433eb2892beee4088 *3-03 Black Peter.flac
f5454bec2d92fad751bb08d6c5fbc239 *3-04 Sugar Magnolia.flac
a2fad5d757638e758d1d0ad53f2bb901 *3-05 Sunshine Daydream.flac
b28a55dba451b9023fe70a5dc48fd54f *3-06 Knockin' On Heavens Door.flac

Comments
Add Comment
Other Sources (comments)
SBD > DAT > C > DAT > CDR >... (0) flac16; Set 2: FOB... (0) flac16; source: 2... (0) flac16/48kHz; Rob... (0) flac24; Recording... (0) flac16; Recording... (0) flac16; Recording... (0)
Date User Comment