Browse Collections Artists Sources   Search Dates

Add Show    List Management    Help


Grateful Dead 07/15/89
Deer Creek Music Center, Noblesville, IN
Comments Add Comment    Source Collectors    Add to Collection    Add to Want List    History
Source # 141072 Other Sources
Entered by Matt Vernon
Checksums ffp , flac-md5
Disc Counts 0 / 0
Media Size
Date Circulated
Date Added

02/17/2018
Source Summary flac24/96 Source Info: TS Beyer CM 101-> Sony D6-> Cassette Master (Maxell XL-II's 90's) Transfer Info: Master Cassette-> Nakamichi CR-5A -> Grace Lunatec V3 (Analog-> Digital Converter) (SPDIF out) 24/96-> Marantz PMD 661 MKII (Solid State Recorder)-> SD Card-> WAV-> FLAC Level 8-> Tagged (24/96) Taped & Transfers by Pete Ebel 
  Archive
Source Information - Download Text | Download Zip
Grateful Dead
Deer Creek - Noblesville - IN
July 15, 1989

Source Info:
TS Beyer CM 101-> Sony D6-> Cassette Master (Maxell XL-II's 90's)

Transfer Info:
Master Cassette-> Nakamichi CR-5A -> Grace Lunatec V3 (Analog-> Digital Converter) (SPDIF out) 24/96->
Marantz PMD 661 MKII (Solid State Recorder)-> SD Card-> WAV-> FLAC Level 8-> Tagged (24/96)


Taped & Transfers by Pete Ebel
January 15, 2018


Notes:
Set #1 Missing Audio used from Sennheiser 441 #139293 to fill tape flip After Peggy' O
and Queen Jane Intro (37:46->38:56)


Set #2 Is Seemless
Start of Set #2 Tuning->Foolish Heart Audio used from Nakamichi CM300/CP4 #125721 (0:00->1:10) and
Tape Flip Start Of Drumz (46:33->49:31) and cut (54:23->56:16) also Tape Switch at start of
Sugar Magnolia (135:33->1:35:46). All cross faded to make as little of a Audible difference.



Set #1:
01. Tuning
02. Bertha
03. Greatest Story Ever Told
04. Candyman
05. Walking Blues
06. Peggy' O
07. Queen Jane
08. We Can Run
09. Bird Song

Set #2:
10. Tuning
11. Foolish Heart
12. Victim Or The Crime
13. Crazy Fingers
14. Truckin'
15. Smokestack Lightning
16. Drumz
17. Space
18. Close Encounter's Space
19. China Doll
20. All A Long The Watchtower
21. Stella Blue
22. Sugar Magnolia

Encore:
23. Brokedown Palace




SHNTOOL OUTPUT:
    length     expanded size    cdr  WAVE problems  fmt   ratio  filename
     0:54.173      31203884 B   cxx   --   ---xx   flac  0.6007  01 Tuning.flac
     6:53.320     238072364 B   cxx   --   ---xx   flac  0.6341  02 Bertha.flac
     6:58.926     241301150 B   cxx   --   ---xx   flac  0.6041  03 Greatest Story Ever Told.flac
     7:10.880     248186924 B   cxx   --   ---xx   flac  0.6180  04 Candyman.flac
     7:27.893     257986604 B   cxx   --   ---xx   flac  0.6184  05 Walking Blues.flac
     8:57.493     309596204 B   cxx   --   ---xx   flac  0.6106  06 Peggy' O.flac
     7:40.867     265459244 B   cxx   --   ---xx   flac  0.6205  07 Queen Jane.flac
     5:46.320     199480364 B   cxx   --   ---xx   flac  0.6244  08 We Can Run.flac
    13:42.224     473600840 B   cxx   --   ---xx   flac  0.6176  09 Bird Song.flac
     0:40.680      23431724 B   cxx   --   ---xx   flac  0.6812  10 Tuning.flac
    10:36.400     366566444 B   cxx   --   ---xx   flac  0.6435  11 Foolish Heart.flac
     7:49.493     270428204 B   cxx   --   ---xx   flac  0.6212  12 Victim Or The Crime.flac
     9:05.573     314250284 B   cxx   --   ---xx   flac  0.6200  13 Crazy Fingers.flac
     8:04.027     278799404 B   cxx   --   ---xx   flac  0.6231  14 Truckin'.flac
    10:28.053     361758764 B   cxx   --   ---xx   flac  0.6017  15 Smokestack Lightning.flac
     9:48.229     338819984 B   cxx   --   ---xx   flac  0.5627  16 Drumz.flac
     7:48.573     269898284 B   cxx   --   ---xx   flac  0.6010  17 Space.flac
     8:47.520     303851564 B   cxx   --   ---xx   flac  0.6198  18 Close Encounter's Space.flac
     7:02.520     243371564 B   cxx   --   ---xx   flac  0.6315  19 China Doll.flac
     6:52.080     237358124 B   cxx   --   ---xx   flac  0.6415  20 All A Long The Watchtower.flac
     8:27.013     292039724 B   cxx   --   ---xx   flac  0.6118  21 Stella Blue.flac
    10:23.053     358878764 B   cxx   --   ---xx   flac  0.6350  22 Sugar Magnolia.flac
     6:54.657     238842476 B   cxx   --   ---xx   flac  0.6136  23 Brokedown Palace.flac
   178:19.969    6163182886 B                            0.6174  (23 files)


Show Checksums
ffp
01 Tuning.flac:04fa55b1fc638f107e4c751a37175fb9
02 Bertha.flac:979dd95b1c05b379e38d96dee9606b5c
03 Greatest Story Ever Told.flac:2912427f24da3f43089b1cce9520e64f
04 Candyman.flac:5baaecf7f5629f2da5d415199b08ff05
05 Walking Blues.flac:804934dc05e55b1bca98a333d9d0139a
06 Peggy' O.flac:395c8d635396d9bf657a4affa8a99443
07 Queen Jane.flac:e15b383c1c05c3318001391edab6eea5
08 We Can Run.flac:650b13837681d4c507e68c4fab90fcc2
09 Bird Song.flac:e8391412b09b13dce730639c9878f362
10 Tuning.flac:47dd97f0fa18735571484d4ee90090b6
11 Foolish Heart.flac:0229147305d98f2daf9191e62cf904d8
12 Victim Or The Crime.flac:5ed4769c6f1d1cbc221f06d97b522614
13 Crazy Fingers.flac:e623363d4c6268d5b0723e5cb6cb60cb
14 Truckin'.flac:cf070171a71d3d1b5565112878bbc3e9
15 Smokestack Lightning.flac:6cbd24421a8ef1175efde01e27cafd7c
16 Drumz.flac:3158974b231e1b79416bea39495c4046
17 Space.flac:2710263fe0b8c9d50edb81bd7f6e3bbf
18 Close Encounter's Space.flac:8f9f39a9e23718f0bd2fe8fddb9948f5
19 China Doll.flac:c14ec0a19d6e792a67a8a740e9bbb438
20 All A Long The Watchtower.flac:2a39a6c525b884b1d13e73b8a78ab6be
21 Stella Blue.flac:3917984a6746de53d5f78ae6f4e55b38
22 Sugar Magnolia.flac:1107612a652e7ce62ee7564d0c67820f
23 Brokedown Palace.flac:098487e2e68e0315bee9d7e59305a488
flac-md5
e0cd45f09798064d367cdcc86cdb6d15 *01 Tuning.flac
bc35a4b9b488d43ea9b13453a63a0980 *02 Bertha.flac
78c93337316b8f914628e0cf95bb5cc0 *03 Greatest Story Ever Told.flac
d29e6335b52cd3948842e2b12d8f20d9 *04 Candyman.flac
d1c75f4e6db014de521112851996fc87 *05 Walking Blues.flac
a4c8495ffb85ca0550ebfa45f459bd89 *06 Peggy' O.flac
7e8e07c330cafe32882dc916a250c95a *07 Queen Jane.flac
054519df2c16f93af5dbad891c52aecf *08 We Can Run.flac
6334b69deec79d3ee88fa940537398d0 *09 Bird Song.flac
5dff0b2d66d2fe7a60f19485580fe5b0 *10 Tuning.flac
a8e781f9449a1ca9bc210f2caaa89e26 *11 Foolish Heart.flac
5aa4a3e99818ad7e2223a547b73dac40 *12 Victim Or The Crime.flac
cfcfae05cd459a1437176ab2c8fe35d9 *13 Crazy Fingers.flac
61374b5a76521a589d1244f3bc57f5ac *14 Truckin'.flac
d4db4fc4cf17463f88ffd6e368b29441 *15 Smokestack Lightning.flac
3ab08bcefdab9499f2d99a22d4f70249 *16 Drumz.flac
9862df7d312a2f8ea11282cf86d63453 *17 Space.flac
7249b5aa9e91bc385c09050bb4095f81 *18 Close Encounter's Space.flac
a080efedf900df794635b25294fcb2c6 *19 China Doll.flac
860ac8d64556dad7a1ae7c7f04188705 *20 All A Long The Watchtower.flac
ee1658bd2e2516b27145fb938e033567 *21 Stella Blue.flac
a442111a565f2a07110b7ac023a78316 *22 Sugar Magnolia.flac
a3a57d1184f43174bde17ea27a590917 *23 Brokedown Palace.flac

Comments
Add Comment
Other Sources (comments)
SBD > MR > DAT > C > DAT >... (2) flac16; Source:... (0) flac16; Recording... (0) flac16; Source:... (2) flac16; Taper: Greg... (0) flac16; Recorded by... (0) flac16; Recorded &... (0) flac24; Master... (0) flac16; Master... (0) flac24; Recording... (0) flac16; Recording... (0) flac16; source: aud... (0) flac24; source: aud... (0)
Date User Comment