Browse Collections Artists Sources   Search Dates

Add Show    List Management    Help


Ratdog 07/03/96
Pine Knob Music Theater, Clarkston, MI
Comments Add Comment    Source Collectors    Add to Collection    Add to Want List    History
Source # 141083 Other Sources
Entered by Matt Vernon
Checksums ffp , flac-md5
Disc Counts 0 / 0
Media Size
Date Circulated
Date Added

02/18/2018
Source Summary flac16/44.1khz Source: FOB Schoeps CMC 64->Sonosax P/S-> Panasonic SV255 Transfer Info: Dat Tape (Panasonic SV-3700)-> Marantz CDR-615-> CD (Late 90's) Extract Wav-> Flac Level 8-> Tagged (16/44.1) Taped and Transfers by Pete Ebel 
Source Information - Download Text | Download Zip
Rat Dog
Pine Knob - Clarkston - MI
July 3, 1996


Source: FOB Schoeps CMC 64->Sonosax P/S-> Panasonic SV255

Transfer Info:
Dat Tape (Panasonic SV-3700)-> Marantz CDR-615-> CD (Late 90's)
Extract Wav-> Flac Level 8-> Tagged (16/44.1)


Taped and Transfers by Pete Ebel
Late 90's and February 06, 2018


01. Good Morning Little Schoolgirl
02. Howling
03. Youngblood
04. Eternity
05. Juke
06. All Over Now
07. Looks Like Rain
08. Travel Alone
09. Easy To Slip > Supplication > Easy To Slip
10. Bass solo
10. Lovelight
11. Drink Of Tanquery
12. Low Spark Of High Heeled Boys
13. All Along The Watchtower

Notes

Bruce Hornsby - piano on Looks Like Rain & piano & vocals Low Spark ...
David Hidalgo - solo guitar on Low spark ...
Jorma Kaukonen - solo guitar All Along The Watchtower




SHN Tool Output:
    length     expanded size    cdr  WAVE problems  fmt   ratio  filename
     4:34.40       48427724 B   ---   --   ---xx   flac  0.4783  01 Good Morning Little School girl.flac
     5:02.00       53272844 B   ---   --   ---xx   flac  0.4846  02 Howling.flac
     3:38.06       38469356 B   ---   --   ---xx   flac  0.5022  03 Youngblood.flac
    11:21.18      120170780 B   ---   --   ---xx   flac  0.4907  04 Eternity.flac
     2:49.24       29868092 B   ---   --   ---xx   flac  0.5582  05 Juke.flac
     5:04.46       53733836 B   ---   --   ---xx   flac  0.5303  06 All Over Now.flac
     8:36.61       91165916 B   ---   --   ---xx   flac  0.5394  07 Look's Like Rain.flac
     3:57.40       41900924 B   ---   --   ---xx   flac  0.5403  08 Travel Alone.flac
    10:05.09      106743212 B   ---   --   ---xx   flac  0.5271  09 Easy To Slip-Supplication.flac
     5:28.23       57913340 B   ---   --   ---xx   flac  0.4268  10 Bass Solo.flac
     8:32.32       90392108 B   ---   --   ---xx   flac  0.5544  11 Lovelight.flac
     4:52.19       51553532 B   ---   --   ---xx   flac  0.5398  12 Drinkin' Tanquery.flac
     6:58.61       73878716 B   ---   --   ---xx   flac  0.5697  13 Low Spark Of High Heeled Boys.flac
     6:18.09       66700412 B   ---   --   ---xx   flac  0.5518  14 All Along The Watchtower.flac
    87:19.13      924190792 B                            0.5216  (14 files)


Show Checksums
ffp
01 Good Morning Little School girl.flac:c9db3aea95d5a2e4a0b57008fe5c38aa
02 Howling.flac:77cba8d4c78726a3ee6061f377890c74
03 Youngblood.flac:8a2d901c00ecda1ee14145b6f48c4f60
04 Eternity.flac:140028fcc94db53021b371ffa8c10ea5
05 Juke.flac:abbcb50f509bd02e98172815adce2327
06 All Over Now.flac:2764ac47bf5b415a0bee93f5d2d0f8fe
07 Look's Like Rain.flac:4cc539fab1973e721e9e161eec7649bd
08 Travel Alone.flac:38bbf4fef1d015155bb3302f1d36d948
09 Easy To Slip-Supplication.flac:a4b8b258903854c5c0b3f4d5dcc1affb
10 Bass Solo.flac:437e7348182a958eb129b0ea3086596d
11 Lovelight.flac:295bbe6685bb4abae008fc5ee7f0b6b3
12 Drinkin' Tanquery.flac:33777b1d6f393e85e6ca3e334e10d4eb
13 Low Spark Of High Heeled Boys.flac:4a21809541b5dd8a615684389da5efcc
14 All Along The Watchtower.flac:92d8e972056dcecd4d9b448989a9836f
flac-md5
18e07d424b3f66e079659b18d3eceaf1 *01 Good Morning Little School girl.flac
7ea8b44b85864596c9467641b1b631d9 *02 Howling.flac
1b82f0ea8fe19fd69332c3a53a30ea04 *03 Youngblood.flac
8d0a2a82522e4c02ac6dba7bbc9f2ad7 *04 Eternity.flac
47e42208a12c17b6b06ce5529d1d6349 *05 Juke.flac
4ebc5518d25a74b9048b18cc6ba08f26 *06 All Over Now.flac
0953deebadc4ef72d45a064b49a882e4 *07 Look's Like Rain.flac
09e95d03711958fcfe0cb8fb69b3c031 *08 Travel Alone.flac
dcbcf78116343a6e34984ad86b23037b *09 Easy To Slip-Supplication.flac
d24d0192f3eaeb3687852bfd2c988940 *10 Bass Solo.flac
463381162a69cff81186f57dd6389cc9 *11 Lovelight.flac
e726ec0eb0b4279acb3623b3c9ec56d0 *12 Drinkin' Tanquery.flac
1cd9ad3e59caf897ad9ae0db55e21c78 *13 Low Spark Of High Heeled Boys.flac
78a767d35e4d3737115fe3de0582d349 *14 All Along The Watchtower.flac

Comments
Add Comment
Other Sources (comments)
Source: audience... (0) Source: Audience recording... (0)
Date User Comment