Browse Collections Artists Sources   Search Dates

Add Show    List Management    Help


Ratdog 05/26/00
Buckeye Lake Music Center, Hebron, OH
Comments Add Comment    Source Collectors    Add to Collection    Add to Want List    History
Source # 141084 Other Sources
Entered by Matt Vernon
Checksums ffp , flac-md5
Disc Counts 0 / 0
Media Size
Date Circulated
Date Added

02/18/2018
Source Summary flac16/44.1khz Source: FOB Schoeps CMC 64 > Sosonax P/S > Panasonic SV-255-> DAT Transfer Info: Dat Tape (Panasonic SV-3700)-> Marantz CDR-615-> CD (2000) Extract Wav-> Flac Level 8-> Tagged (16/44.1) Taped and Transfers by Pete Ebel. Includes Ekoostik Hookah/Bob Weir set. 
Source Information - Download Text | Download Zip
Ratdog
** Hookahville**
Buckeye Lake Music Center - Hebron - OH
Hebron, OH
May 26, 2000

Source: FOB Schoeps CMC 64 > Sosonax P/S > Panasonic SV-255-> DAT

Transfer Info:
Dat Tape (Panasonic SV-3700)-> Marantz CDR-615-> CD (2000)
Extract Wav-> Flac Level 8-> Tagged (16/44.1)


Taped and Transfers by Pete Ebel
2000 and February 12, 2018



Rat Dog Set:

1-01 Jam
1-02 Playing In The Band
1-03 She Belongs To Me
1-04 El Paso
1-05 Eternity
1-06 Masterpiece
1-07 Big Bos Man
1-08 Octobers Queen

2-01 Even So
2-02 The Other One
2-03 Bass Jam
2-04 St. Stephen Jam
2-05 Knockin' On Heavens Door
2-06 Playin' Reprise

Encore:
2-07 Touch Of Grey


Bob Weir with Ekoostik Hookah:

3-01 Bob Weir Intro and Tuning
3-02 Lost Sailor
3-03 Saint Of Circumstance
3-04 China Cat Sunflower
3-05 I Know You Rider


SHNTOOL OUTPUT:
    length     expanded size    cdr  WAVE problems  fmt   ratio  filename
     6:11.41       65540876 B   ---   --   ---xx   flac  0.4876  1-01 Jam.flac
     8:11.57       86746508 B   ---   --   ---xx   flac  0.5411  1-02 Playing In The Band.flac
     7:12.33       76282460 B   ---   --   ---xx   flac  0.5524  1-03 She Belongs To Me.flac
     5:48.04       61396652 B   ---   --   ---xx   flac  0.5284  1-04 El Paso.flac
     8:59.17       95119628 B   ---   --   ---xx   flac  0.5053  1-05 Eternity.flac
     5:41.33       60230060 B   ---   --   ---xx   flac  0.5534  1-06 Masterpiece.flac
     7:58.06       84333356 B   ---   --   ---xx   flac  0.5377  1-07 Big Boss Man.flac
     9:05.66       96293276 B   ---   --   ---xx   flac  0.5273  1-08 October Queen.flac
    12:15.71      129821036 B   ---   --   ---xx   flac  0.5108  2-01 Even So.flac
     5:16.55       55871804 B   ---   --   ---xx   flac  0.5398  2-02 The Other One.flac
     3:19.49       35218892 B   ---   --   ---xx   flac  0.4660  2-03 Bass Jam.flac
     6:24.36       67822316 B   ---   --   ---xx   flac  0.5247  2-04 St. Stephen Jam.flac
     4:49.12       51007868 B   ---   --   ---xx   flac  0.5193  2-05 Knockin' On Heavens Door.flac
    11:35.20      122645084 B   ---   --   ---xx   flac  0.5381  2-06 Playin' Reprise.flac
     7:31.59       79695212 B   ---   --   ---xx   flac  0.5576  2-07 Touch Of Grey.flac
     1:39.23       17517740 B   ---   --   ---xx   flac  0.4946  3-01 Bob Weir Intro and Tuning.flac
     7:19.44       77543132 B   ---   --   ---xx   flac  0.5345  3-02 Lost Sailor.flac
     8:39.13       91582220 B   ---   --   ---xx   flac  0.5792  3-03 Saint Of Circumstance.flac
     9:11.57       97330508 B   ---   --   ---xx   flac  0.5755  3-04 China Cat Sunflower.flac
     6:13.46       65905436 B   ---   --   ---xx   flac  0.5952  3-05 I Know You Rider.flac
   143:24.67     1517904064 B                            0.5368  (20 files)

Show Checksums
ffp
1-01 Jam.flac:4f99a475fcde5ffe665c7c4f931b5ec8
1-02 Playing In The Band.flac:64d484b9513c2be1922a5b3997d53d73
1-03 She Belongs To Me.flac:c1a39ec3e17adca22615c451d0038b8f
1-04 El Paso.flac:6fcdd0a229bd68e7e1e62f6abeaf13ec
1-05 Eternity.flac:9fb34983fb910dab5f8d57c64854ea7d
1-06 Masterpiece.flac:19bfb6514746519e1419c4d71a1b5e3a
1-07 Big Boss Man.flac:1560df4011ac7a908c746b0899166181
1-08 October Queen.flac:1a4bdd28b184a4f40ebc78d07e9b90ee
2-01 Even So.flac:337eedff1fedd65ab904df8fb599804e
2-02 The Other One.flac:879f590dbc3f78ebf9ade83d2edb2f6e
2-03 Bass Jam.flac:4772d478e2e19868cc09d9f0267ae102
2-04 St. Stephen Jam.flac:0b0a6b3a113d54d674c9bb79dab27abc
2-05 Knockin' On Heavens Door.flac:0e2d6800735660d7106a1d3c93c44b79
2-06 Playin' Reprise.flac:2eef19139f0f968cb0c8d76788fdb7d7
2-07 Touch Of Grey.flac:41c19397743b4021e435dee384bc2563
3-01 Bob Weir Intro and Tuning.flac:5ea13982ea98b8d304946ed12c1f4264
3-02 Lost Sailor.flac:b656d80ec86e128d3f50fd4c09e30fab
3-03 Saint Of Circumstance.flac:e6c0e4cd921a64c5464d71271272183a
3-04 China Cat Sunflower.flac:baf34f761ca94a57fc783ea8ea1e3d37
3-05 I Know You Rider.flac:0341deb4e9d18a6a8d131605bdca5f48
flac-md5
74a0d43279105d4bffdb22c2c7a2ed0d *1-01 Jam.flac
fdb6504b8471860c8c1d09460ee4e2a8 *1-02 Playing In The Band.flac
c7cbd014dc4b0e52338d8b2ce166650c *1-03 She Belongs To Me.flac
342de069122c0873141eb423c52a3652 *1-04 El Paso.flac
f88fd87a7f8db3abfff8be2942202bdf *1-05 Eternity.flac
f4aa7dd9dc5851d91927b94d9c66ab62 *1-06 Masterpiece.flac
49143071543afa9d37a706b2d8730f1c *1-07 Big Boss Man.flac
281b8758ced8540ce061d01b8efe8b22 *1-08 October Queen.flac
ee405a9ff83a09fc56455f139d301ce5 *2-01 Even So.flac
2147bffa65e8766e553142f421ff79cf *2-02 The Other One.flac
9181614ca8b34c2352d3234412a6a830 *2-03 Bass Jam.flac
6abf265b4102b0f60abfd78fe2cab81b *2-04 St. Stephen Jam.flac
91414452f29c5ebe118af59e94328451 *2-05 Knockin' On Heavens Door.flac
78340f44781d41fdae7b068ce32dd1da *2-06 Playin' Reprise.flac
bebed36bf4c74c2966e1b16566040af5 *2-07 Touch Of Grey.flac
6fbfe039720229bb65050f3a11486d86 *3-01 Bob Weir Intro and Tuning.flac
180117c84b8b787c2fe0d6b71a95e94f *3-02 Lost Sailor.flac
a4b65c5f5b5d3ee28ee312b118fcb4f3 *3-03 Saint Of Circumstance.flac
28f828a318445300dd18cd74c64ee73f *3-04 China Cat Sunflower.flac
99f25278466b5fc4b68e5ba5039a152a *3-05 I Know You Rider.flac

Comments
Add Comment
Other Sources (comments)
Source: FOB Schoeps CMC 64... (0) Source: AKG... (0) Source: 24-channel stage... (0)
Date User Comment