Browse Collections Artists Sources   Search Dates

Add Show    List Management    Help


Grateful Dead 10/13/90
Ice Stadium, Stockholm, Sweden
Comments Add Comment    Source Collectors    Add to Collection    Add to Want List    History
Source # 141088 Other Sources
Entered by Matt Vernon
Checksums ffp , flac-md5
Disc Counts 0 / 0
Media Size Compressed: 850.72 MB (892047360 bytes)
Date Circulated
Date Added
02/19/2018
02/19/2018
Source Summary flac16; Recording Info: Ultra Matrix SBD > Cassette Master (TDK SA-X100); Transfer Info: Cassette Master (Nakamichi CR-7A) > Tascam DA-3000 (DSF 1-bit/5.8 MHz) > KORG AudioGate 4 > Adobe Audition CC 2015 > Samplitude Pro X3 Suite > FLAC/24; All Transfers and Mastering By Charlie Miller 
  Archive
Source Information - Download Text | Download Zip
Grateful Dead - October 13, 1990
Ice Stadium - Stockholm, Sweden

Recording Info:
Ultra Matrix SBD > Cassette Master (TDK SA-X100)

Transfer Info:
Cassette Master (Nakamichi CR-7A) > Tascam DA-3000 (DSF 1-bit/5.8 MHz) >
KORG AudioGate 4 > Adobe Audition CC 2015 > Samplitude Pro X3 Suite > FLAC/24
(1 Disc FLAC)

All Transfers and Mastering By Charlie Miller
[email protected]
February 18, 2018

Patch Info:
Nakamichi 300 > Cassette Master (shnid=90031) supplies:
Cold Rain And Snow (0:00 - 0:14)

Notes:
-- Thanks to Joe B. Jones for the pitch correction settings
-- Thanks to Alf Houck, Robert Wright and Bill Koucky for the patch source
-- Two sets of master were used to make the soundboard portion complete
-- This file set is 16 bit

Set 1:
01 - Cold Rain & Snow
02 - Feel Like A Stranger
03 - Candyman
04 - Walkin' Blues
05 - Loser
06 - Queen Jane Approximately
07 - Bird Song >
08 - Promised Land

Set 2:
09 - Tuning
10 - Touch Of Grey
11 - Estimated Prophet >
12 - Crazy Fingers >
13 - Playing In The Band >
14 - Drums >
15 - Space >
16 - All Along The Watchtower >
17 - Stella Blue >
18 - Throwing Stones >
19 - Not Fade Away

Encore:
20 - Encore Break
21 - One More Saturday Night


SHNTOOL OUTPUT:
    length     expanded size    cdr  WAVE problems  fmt   ratio  filename
     6:21.70       67373084 B   ---   --   ---xx   flac  0.6217  01 Cold Rain And Snow.flac
     8:10.62       86581868 B   ---   --   ---xx   flac  0.6024  02 Feel Like A Stranger.flac
     7:33.00       79909244 B   ---   --   ---xx   flac  0.5895  03 Candyman.flac
     6:32.32       69224108 B   ---   --   ---xx   flac  0.5861  04 Walkin' Blues.flac
     7:06.20       75193484 B   ---   --   ---xx   flac  0.5976  05 Loser.flac
     6:39.53       70508300 B   ---   --   ---xx   flac  0.6029  06 Queen Jane Approximately.flac
    10:16.73      108834140 B   ---   --   ---xx   flac  0.5890  07 Bird Song.flac
     4:51.20       51379484 B   ---   --   ---xx   flac  0.6302  08 Promised Land.flac
     1:21.73       14460140 B   ---   --   ---xx   flac  0.4405  09 Tuning.flac
     7:13.21       76430636 B   ---   --   ---xx   flac  0.6261  10 Touch Of Grey.flac
    11:16.16      119284076 B   ---   --   ---xx   flac  0.5986  11 Estimated Propeht.flac
     7:27.53       78975500 B   ---   --   ---xx   flac  0.5828  12 Crazy Fingers.flac
     8:07.34       85986812 B   ---   --   ---xx   flac  0.6096  13 Playing In The Band.flac
     9:48.63      103871420 B   ---   --   ---xx   flac  0.5000  14 Drums.flac
     5:27.26       57743996 B   ---   --   ---xx   flac  0.4986  15 Space.flac
     5:34.54       59044652 B   ---   --   ---xx   flac  0.6211  16 All Along The Watchtower.flac
     7:36.49       80553692 B   ---   --   ---xx   flac  0.5496  17 Stella Blue.flac
     9:19.60       98748764 B   ---   --   ---xx   flac  0.5968  18 Throwing Stones.flac
     6:06.01       64564796 B   ---   --   ---xx   flac  0.5607  19 Not Fade Away.flac
     2:14.43       23738780 B   ---   --   ---xx   flac  0.4648  20 Encore Break.flac
     5:10.15       54719324 B   ---   --   ---xx   flac  0.6292  21 One More Saturday Night.flac
   144:17.13     1527126300 B                            0.5841  (21 files)


Show Checksums
ffp
01 Cold Rain And Snow.flac:42bfc6ed1ed769615bf5822b29f6ca81
02 Feel Like A Stranger.flac:514aa1969a9d4183bdde0be50873e564
03 Candyman.flac:a0c1a16390dbc17ba9eb52619013e85e
04 Walkin' Blues.flac:96ef93116b727c371d963224ab912f7a
05 Loser.flac:14e39ecb4ff2f8bcabcf3ff9089ee3cf
06 Queen Jane Approximately.flac:9b1a749390db4c984c74834ccb1c1242
07 Bird Song.flac:ec6430cfc722dd1bb0231b7e9a5c7d0d
08 Promised Land.flac:d8b2eb6ad3db04a55952edbc1e1e6430
09 Tuning.flac:f669864fdc09c039e547cf70f34a2742
10 Touch Of Grey.flac:b923600a4b38065bf88c125f5efe867f
11 Estimated Propeht.flac:3e5b79ecc0f06c58970ad7edb00bcc4f
12 Crazy Fingers.flac:67cd68b9d05f8b9051e62485065dbf0d
13 Playing In The Band.flac:0f9a53880e4f954b8b8434ad9dfc35c4
14 Drums.flac:49d2dfcaf3ae41c783b075f1d4520810
15 Space.flac:6cd3b0ce490658693491a1f983cd0927
16 All Along The Watchtower.flac:b799a67450ba5048947d0004d7810a1e
17 Stella Blue.flac:28406d995ebbc0bee79e60d5484c5b53
18 Throwing Stones.flac:a18f7b492d56e145c562255a40ed948f
19 Not Fade Away.flac:03c4396eebae821d3c76e4483d534bf8
20 Encore Break.flac:03a42dc8198cd35999b500ea4abf4315
21 One More Saturday Night.flac:1cdb97385728b9777982cf5ae4f0dc0e
flac-md5
bd2d607a35bce12e648d594ee0bbc110 *01 Cold Rain And Snow.flac
c09f2b77968084e5238755e475851db9 *02 Feel Like A Stranger.flac
8ce5476031ecdf003960909d2462abbd *03 Candyman.flac
67eae81bf1d243d361265a4fc3864ca5 *04 Walkin' Blues.flac
fd6ef158a89341d7ac93db50b26ef70f *05 Loser.flac
547732535b4205831a7bcbdf22798b82 *06 Queen Jane Approximately.flac
d354521d7b4c55a1d584a414dcf97eb6 *07 Bird Song.flac
f18266d94ab180d35b0d913e3b07dc73 *08 Promised Land.flac
c25e7b917ecd7919d70c105a8b0a0f6f *09 Tuning.flac
0875067ee9dc3b73dedd959e4608ae17 *10 Touch Of Grey.flac
536ebe6d44c2b4d88bced34b4fcdd667 *11 Estimated Propeht.flac
3e99ec94eb2752a92badf77d3095ae87 *12 Crazy Fingers.flac
d70ee1599524bf6f00ca3048399b35e1 *13 Playing In The Band.flac
bd5a04c2df8e73aeeaeecfff472ba2fb *14 Drums.flac
18dbf4fb571455a6ef0b9ff190a66267 *15 Space.flac
7bc6df0fb848da7dd5ad2d85a0ba58ab *16 All Along The Watchtower.flac
6c40a241f5d452da4eb4ed9e83fe89d5 *17 Stella Blue.flac
b9f39e8d20865a3ac6bf60e802230a0f *18 Throwing Stones.flac
294ed8037da0a325e806a6c47522fd55 *19 Not Fade Away.flac
05d06dbbf2947e285318bb3357ffea3c *20 Encore Break.flac
f9d7b0fa37a231ce84cbac610210edcf *21 One More Saturday Night.flac

Comments
Add Comment
Other Sources (comments)
SBD>MC>C>DAT>CDR; via Paul... (0) DSBD > CD > EAC > SHN;... (0) flac16; Source:... (0) flac16; Audience... (0) flac16; Recording... (0) flac16/48kHz;... (0) flac24; Recording... (0)
Date User Comment