Browse Collections Artists Sources   Search Dates

Add Show    List Management    Help


Grateful Dead 04/21/71
Rhode Island Auditorium, Providence, RI
Comments Add Comment    Source Collectors    Add to Collection    Add to Want List    History
Source # 141116 Other Sources
Entered by Matt Vernon
Checksums flac-md5 , ffp
Disc Counts 0 / 0
Media Size
Date Circulated
Date Added
02/20/2018
02/20/2018
Source Summary flac16; Source Info: Master Soundboard Reels > 1st generation reels > 2nd generation reels > PCM (Sony HG tape); Transfer Info: PCM (Sony SL-10)> Sony PCM-601ESD > Behringer Ultramatch Pro > Tascam DA-3000 (wav 16-bit/44.1k)> Adobe Audition 3.0 > TLH flac16 
  Archive
Source Information - Download Text | Download Zip
Grateful Dead
Rhode Island Auditorium
Providence, Rhode Island
Wednesday April 21, 1971

Source Info:
Master Soundboard Reels > 1st generation reels > 2nd generation reels > PCM (Sony HG tape)

Transfer Info:
PCM (Sony SL-10)> Sony PCM-601ESD > Behringer Ultramatch Pro > Tascam DA-3000 (wav 16-bit/44.1k)> Adobe Audition 3.0 > TLH flac16

Notes:
- Thanks to Tim Dalton for the source PCM
- Thanks to Charlie Miller for the transfer
- "Stand up, sit down, stand up, sit down, stand up, sit down, same old story, man, you guys work it out"

Mastered by Scott Clugston
February 19, 2018

Set One:
t01 - Casey Jones
t02 - Mama Tried
t03 - Big Boss Man
t04 - Loser
t05 - Truckin' >
t06 - Drums >
t07 - The Other One >
t08 - Wharf Rat
t09 - Hard To Handle
t10 - Cumberland Blues
t11 - Bird Song
t12 - Me & Bobby McGee

Set Two:
t13 - Bertha
t14 - Sugar Magnolia
t15 - Good Lovin' >
t16 - Not Fade Away >
t17 - Goin' Down The Road Feeling Bad >
t18 - Not Fade Away
Encore:
t19 - Uncle John's Band >
t20 - Johnny B. Goode



    length     expanded size    cdr  WAVE problems  fmt   ratio  filename
     5:49.10       61587164 B   ---   --   ---xx   flac  0.6063  gd71-04-21 t01 Casey Jones.flac
     2:52.47       30451388 B   ---   --   ---xx   flac  0.6191  gd71-04-21 t02 Mama Tried.flac
     5:48.26       61448396 B   ---   --   ---xx   flac  0.6055  gd71-04-21 t03 Big Boss Man.flac
     6:56.33       73460060 B   ---   --   ---xx   flac  0.5889  gd71-04-21 t04 Loser.flac
     8:03.72       85370588 B   ---   --   ---xx   flac  0.6245  gd71-04-21 t05 Truckin'.flac
     4:09.69       44085932 B   ---   --   ---xx   flac  0.5963  gd71-04-21 t06 Drums.flac
    11:23.43      120582380 B   ---   --   ---xx   flac  0.6097  gd71-04-21 t07 The Other One.flac
    10:05.04      106731452 B   ---   --   ---xx   flac  0.5926  gd71-04-21 t08 Wharf Rat.flac
     9:10.20       97067084 B   ---   --   ---xx   flac  0.6289  gd71-04-21 t09 Hard To Handle.flac
     5:03.39       53540972 B   ---   --   ---xx   flac  0.6328  gd71-04-21 t10 Cumberland Blues.flac
     8:33.56       90624956 B   ---   --   ---xx   flac  0.5868  gd71-04-21 t11 Bird Song.flac
     5:59.53       63452300 B   ---   --   ---xx   flac  0.5991  gd71-04-21 t12 Me & Bobby McGee.flac
     5:46.72       61203788 B   ---   --   ---xx   flac  0.6485  gd71-04-21 t13 Bertha.flac
     6:29.35       68701964 B   ---   --   ---xx   flac  0.6522  gd71-04-21 t14 Sugar Magnolia.flac
    14:50.31      157068956 B   ---   --   ---xx   flac  0.6443  gd71-04-21 t15 Good Lovin'.flac
     4:23.35       46475564 B   ---   --   ---xx   flac  0.6121  gd71-04-21 t16 Not Fade Away.flac
     7:06.71       75313436 B   ---   --   ---xx   flac  0.6303  gd71-04-21 t17 Goin' Down The Road Feeling Bad.flac
     2:51.05       30176204 B   ---   --   ---xx   flac  0.6478  gd71-04-21 t18 Not Fade Away.flac
     5:44.53       60806300 B   ---   --   ---xx   flac  0.6319  gd71-04-21 t19 Uncle John's Band.flac
     3:55.51       41573996 B   ---   --   ---xx   flac  0.6655  gd71-04-21 t20 Johnny B. Goode.flac
   135:05.00     1429722880 B                            0.6200  (20 files)


Show Checksums
flac-md5
ea56ce957d57ee8873a0fc48f07e20ee *gd71-04-21 t01 Casey Jones.flac
73db71b331353dd4ec13270081fb77af *gd71-04-21 t02 Mama Tried.flac
604858122ffeece1c5207ed86da5bdab *gd71-04-21 t03 Big Boss Man.flac
cc89c3ab6010c94f9ca7ba380fd2d220 *gd71-04-21 t04 Loser.flac
51ee3a394aeb3248d0986798371bc427 *gd71-04-21 t05 Truckin'.flac
61e3738a19811e6faad545c00da7f79a *gd71-04-21 t06 Drums.flac
2591a8b45e4758772fc24797c2e221a2 *gd71-04-21 t07 The Other One.flac
20feaf2c4325435e11e51b6bc37bac80 *gd71-04-21 t08 Wharf Rat.flac
72d44404d560fe05b3fd5bf3d7864de5 *gd71-04-21 t09 Hard To Handle.flac
71790f869a5952dbcf01ae7242c06274 *gd71-04-21 t10 Cumberland Blues.flac
1d6597f3ba343a4c68d6b7a2ba0ef135 *gd71-04-21 t11 Bird Song.flac
de67de77aef21825357090ccf32d35e1 *gd71-04-21 t12 Me & Bobby McGee.flac
952a393b35afbfa4493eda89f501e69b *gd71-04-21 t13 Bertha.flac
d99877f53c8772922bcef8521f3bf541 *gd71-04-21 t14 Sugar Magnolia.flac
e3d640b7040d334f580d74d1f4914ba0 *gd71-04-21 t15 Good Lovin'.flac
52e4dce72f113fa735723e267fafd0c6 *gd71-04-21 t16 Not Fade Away.flac
a1b0441e16503937044354a99b0ceee6 *gd71-04-21 t17 Goin' Down The Road Feeling Bad.flac
aabd6f2617749ab3d78ecb17ea2f0802 *gd71-04-21 t18 Not Fade Away.flac
24bed2f626426c12b0fe208c44846e76 *gd71-04-21 t19 Uncle John's Band.flac
0868c4d749fa0b2efb77914da563bb00 *gd71-04-21 t20 Johnny B. Goode.flac
ffp
gd71-04-21 t01 Casey Jones.flac:35bc23a5919f9524a77f3127dc198cf2
gd71-04-21 t02 Mama Tried.flac:e62eb5668e4432a5a82787cf6629df64
gd71-04-21 t03 Big Boss Man.flac:847404e4d8c9b77814616628f513c471
gd71-04-21 t04 Loser.flac:5d1627a25a51cfe20c64fa1e7c2cbf4e
gd71-04-21 t05 Truckin'.flac:e386f75c43f47468180cb0475e5ed109
gd71-04-21 t06 Drums.flac:be7ba15ba04868eb60126a101aa6ed61
gd71-04-21 t07 The Other One.flac:6acca13a1d8236d63ad842a341c5ff9f
gd71-04-21 t08 Wharf Rat.flac:b806240199975d7f5070273a988df689
gd71-04-21 t09 Hard To Handle.flac:4f083d5f0b8b96ed235ee4648df29fbb
gd71-04-21 t10 Cumberland Blues.flac:ea8e199b2ea360c94b26a38d0b6c1db2
gd71-04-21 t11 Bird Song.flac:fc55a0a26dee0cf25626829c8a7c8e01
gd71-04-21 t12 Me & Bobby McGee.flac:cdda52d9ea8c86f371e7876cb41278d1
gd71-04-21 t13 Bertha.flac:5b2625637b06cf0978d17b169df0f3f5
gd71-04-21 t14 Sugar Magnolia.flac:fea2576a00e7f794aef65bec54babbb9
gd71-04-21 t15 Good Lovin'.flac:2018d48c3a1f46a749326a2fb3e67070
gd71-04-21 t16 Not Fade Away.flac:59eff0bc4410ad8dc2b4f43b205af743
gd71-04-21 t17 Goin' Down The Road Feeling Bad.flac:13df31e42fcc3b6119fbed2155f2e26c
gd71-04-21 t18 Not Fade Away.flac:e4006eede595f6b1591219a0046dbb7f
gd71-04-21 t19 Uncle John's Band.flac:89fb43e3f23baba59514654f51caef10
gd71-04-21 t20 Johnny B. Goode.flac:f16d74f28c9ac829470ca64cc656c84f

Comments
Add Comment
Other Sources (comments)
sdb> MR> PCM> CD; via Mike Lai (1) MSR> R> D> CD> DAE> SHN;... (1) Recording Info: SBD > R >... (0)
Date User Comment