Browse Collections Artists Sources   Search Dates

Add Show    List Management    Help


Grateful Dead 04/17/87
Irvine Meadows, Irvine, CA
Comments Add Comment    Source Collectors    Add to Collection    Add to Want List    History
Source # 141128 Other Sources
Entered by Matt Vernon
Checksums ffp , flac-md5
Disc Counts 0 / 0
Media Size
Date Circulated
Date Added
02/21/2018
02/21/2018
Source Summary flac24; Recording Info: UltraMatrix SBD > Cassette Master (TDK MA-R90); Transfer Info: Cassette Master (Nakamichi CR-7A) > Tascam DA-3000 (DSF 1-bit/5.8 MHz) > KORG AudioGate 4 > Adobe Audition CC2015 > Samplitude Pro X3 Suite > FLAC/24; All Transfers and Mastering By Charlie Miller 
  Archive
Source Information - Download Text | Download Zip
Grateful Dead - April 17, 1987
Irvine Meadows - Laguna Hills, CA

Recording Info:
UltraMatrix SBD > Cassette Master (TDK MA-R90)

Transfer Info:
Cassette Master (Nakamichi CR-7A) > Tascam DA-3000 (DSF 1-bit/5.8 MHz) >
KORG AudioGate 4 > Adobe Audition CC2015 > Samplitude Pro X3 Suite > FLAC/24
(1 Disc FLAC)

All Transfers and Mastering By Charlie Miller
[email protected]
February 20, 2018

Notes:
-- Mix changes in Cold Rain And Snow
-- Two sets of masters were used to make this show complete

Set 1:
01 - Cold Rain And Snow
02 - Little Red Rooster
03 - Friend Of The Devil
04 - It's All Over Now
05 - When Push Comes To Shove
06 - Desolation Row >
07 - Deal
08 - Bill Graham Announcements

Set 2:
09 - Tuning
10 - Touch Of Grey >
11 - Samson And Delilah
12 - Ship Of Fools
13 - Estimated Prophet >
14 - Eyes Of The World >
15 - Drums >
16 - Space >
17 - The Wheel >
18 - Truckin' >
19 - Stella Blue >
20 - Around And Around >
21 - Good Lovin'

Encore:
22 - Encore Break
23 - The Mighty Quinn (Quinn The Eskimo)


SHNTOOL OUTPUT:
    length     expanded size    cdr  WAVE problems  fmt   ratio  filename
     5:58.874     206711264 B   cxx   --   ---xx   flac  0.6977  01 Cold Rain And Snow.flac
     9:41.376     334872434 B   cxx   --   ---xx   flac  0.6773  02 Little Red Rooster.flac
     8:52.223     306560402 B   cxx   --   ---xx   flac  0.6795  03 Friend Of The Devil.flac
     8:16.981     286261154 B   cxx   --   ---xx   flac  0.6775  04 It's All Over Now.flac
     5:21.572     185225672 B   cxx   --   ---xx   flac  0.6771  05 When Push Comes To Shove.flac
    10:18.237     356104304 B   cxx   --   ---xx   flac  0.6840  06 Desolation Row.flac
     7:15.066     250597886 B   cxx   --   ---xx   flac  0.6827  07 Deal.flac
     0:31.908      18378914 B   cxx   --   ---xx   flac  0.6492  08 Bill Graham Announcement's.flac
     0:35.873      20662730 B   cxx   --   ---xx   flac  0.6438  09 Tuning.flac
     6:09.272     212700746 B   cxx   --   ---xx   flac  0.6902  10 Touch Of Grey.flac
     6:39.544     230137244 B   cxx   --   ---xx   flac  0.6884  11 Samson And Delilah.flac
     9:23.102     324347048 B   cxx   --   ---xx   flac  0.6812  12 Ship Of Fools.flac
     9:46.190     337645490 B   cxx   --   ---xx   flac  0.6899  13 Estimated Prophet.flac
     7:51.734     271719038 B   cxx   --   ---xx   flac  0.6942  14 Eyes Of The World.flac
     7:20.739     253865468 B   cxx   --   ---xx   flac  0.6258  15 Drums.flac
     6:20.066     218918186 B   cxx   --   ---xx   flac  0.6398  16 Space.flac
     4:30.375     155735930 B   cxx   --   ---xx   flac  0.6825  17 The Wheel.flac
     7:05.189     244909130 B   cxx   --   ---xx   flac  0.6916  18 Truckin'.flac
     8:33.261     295638320 B   cxx   --   ---xx   flac  0.6713  19 Stella Blue.flac
     3:49.151     131990864 B   cxx   --   ---xx   flac  0.6900  20 Around And Around.flac
     8:34.707     296471372 B   cxx   --   ---xx   flac  0.6874  21 Good Lovin'.flac
     2:05.495      72285056 B   cxx   --   ---xx   flac  0.5591  22 Encore Break.flac
     5:06.086     176305478 B   cxx   --   ---xx   flac  0.6837  23 The Mighty Quinn (Quinn The Eskimo).flac
   150:07.019    5188044130 B                            0.6776  (23 files)


Show Checksums
ffp
01 Cold Rain And Snow.flac:40e57201bc2ce503c2bfcad2ee3c6df6
02 Little Red Rooster.flac:7536955be4f940729d12ae87e884b21b
03 Friend Of The Devil.flac:11c3b893e58ea8a58c1cc6ea943c2ec1
04 It's All Over Now.flac:d2d167dd08ab4a632dd0f639af8ab80d
05 When Push Comes To Shove.flac:cf160e12b5760bd28b6ab9d7304a309f
06 Desolation Row.flac:345786c924ea4997e79271b524ca066d
07 Deal.flac:82cb490a4373e1d7545e6323bd1bc99a
08 Bill Graham Announcement's.flac:c6828176f080b3bbfbe30dfb0286e820
09 Tuning.flac:49f5511e3522119df44895253d19541e
10 Touch Of Grey.flac:efa9f5a6d8e0c70aaa61c1c5563d4487
11 Samson And Delilah.flac:787ddc83d7262c5830305dc2c2e4425d
12 Ship Of Fools.flac:f9d5f214d9307f00d9db96250cdf9889
13 Estimated Prophet.flac:ce854ccc63b417d8ecc455d71e1fd2f9
14 Eyes Of The World.flac:ce49161104a1523d560b620bc064e17a
15 Drums.flac:bd2460bbde6e20340d4fcceefa9f442e
16 Space.flac:2fea7547c937cd20e29dc4455a334c65
17 The Wheel.flac:5623ff6b4669a7e8c5d41583e467b566
18 Truckin'.flac:13d7158b972b9bf02c623b1aa7fc1862
19 Stella Blue.flac:4b9763d1475dbfdf014bc1dda7b38ef0
20 Around And Around.flac:27b0cc403107cfd93a54dcd664e88f01
21 Good Lovin'.flac:63b2afdf92dfa30614a15deb0ab9d3f7
22 Encore Break.flac:15c7235075e03a56b83b810336042b14
23 The Mighty Quinn (Quinn The Eskimo).flac:a74b751552935029b3a8d03e43ea49a8
flac-md5
97f79a004dbcee639349953eea3ff16c *01 Cold Rain And Snow.flac
04c63b1188825177830d9c8a37ed4821 *02 Little Red Rooster.flac
ae1a5bdb950b9fa1f0d7fda017559d5b *03 Friend Of The Devil.flac
aed3d0701b3e445bf6606c962431d0d9 *04 It's All Over Now.flac
9c45540481aadbca9b70ecf90a195b49 *05 When Push Comes To Shove.flac
ec9709bbd61e35248c2cd12b074e724b *06 Desolation Row.flac
89cec96d112dc0df0b781f3859ab6d06 *07 Deal.flac
8daab8f45b64060a5c3b571b61f8941e *08 Bill Graham Announcement's.flac
8606873b8b245ea34f9e4e6032432078 *09 Tuning.flac
72a8c97ad4dd8a1c1febc77291e9b792 *10 Touch Of Grey.flac
c78023f7f88ba0578fe35cfced40ea2b *11 Samson And Delilah.flac
792be64f70bc172e315249ae8269064a *12 Ship Of Fools.flac
f58878f4fb61834494fa943183f30303 *13 Estimated Prophet.flac
353d6f02aef4ce47d707df1dd76cd1f4 *14 Eyes Of The World.flac
b77bc86268f8a19501008af9d3271e0a *15 Drums.flac
ace1f16bdfaf8e7cfe5eb7a282ad0e0f *16 Space.flac
3124d42a413e43c40d17589bdf5e79b2 *17 The Wheel.flac
1f34dd5810e2dedd00e5e08bec80517a *18 Truckin'.flac
fe1dbc447a18c206da655a02ccb93cb8 *19 Stella Blue.flac
bbd285591b0b3f38920f551d40810d93 *20 Around And Around.flac
14cb42b59db3e0b671807a114338d548 *21 Good Lovin'.flac
8da1b203924479e16c191586b843d738 *22 Encore Break.flac
54c7ed7153e9153506d27f61c22d43fe *23 The Mighty Quinn (Quinn The Eskimo).flac

Comments
Add Comment
Other Sources (comments)
AUD>PCM>DAT>CDR; Schoeps... (0) Master Soundboard Casette >... (1) flac16; Recording... (0) flac16; MAC;... (0) flac16; Recording... (0)
Date User Comment