Browse Collections Artists Sources   Search Dates

Add Show    List Management    Help


Grateful Dead 04/27/71
Fillmore East, New York, NY
Comments Add Comment    Source Collectors    Add to Collection    Add to Want List    History
Source # 141129 Other Sources
Entered by Matt Vernon
Checksums ffp , flac-md5
Disc Counts 0 / 0
Media Size
Date Circulated
Date Added
02/22/2018
02/21/2018
Source Summary flac16; Source Info: Master Soundboard Reels > PCM (Sony ESX HiFi/L-750 beta tape); Transfer Info: PCM (Sony SL-10)> Sony PCM-601ESD > Behringer Ultramatch Pro > Tascam DA-3000 (wav 16-bit/44.1k)> Adobe Audition 3.0 > TLH flac16 
  Archive
Source Information - Download Text | Download Zip
Grateful Dead
Fillmore East
New York, NY
Tuesday April 27, 1971

Source Info:
Master Soundboard Reels > PCM (Sony ESX HiFi/L-750 beta tape)

Transfer Info:
PCM (Sony SL-10)> Sony PCM-601ESD > Behringer Ultramatch Pro > Tascam DA-3000 (wav 16-bit/44.1k)> Adobe Audition 3.0 > TLH flac16

Notes:
- Thanks to Harvey Lubar (R.I.P.)for the Master Soundboard Reel source
- Thanks to Tim Dalton for the source PCM
- Thanks to Charlie Miller for the transfer
- Thanks to Matt Smith for the shnid114094 soundboard source which supplies the first 0:35 of "Hard To Handle", a 0:03 patch in "Casey Jones", a 0:46 patch in "Sugar Magnolia", the final 4:56 of "Birdsong", the final 3:14 of "Help Me Rhonda", as well as the final 3:11 of "Turn On Your Lovelight"
- "Searchin'", "Riot In Cell Block #9", "Help Me Rhonda", "Okie From Muskogee" and "Johnny B. Goode" with the Beach Boys
- "Good Vibrations" and "I Get Around" - Beach Boys by themselves

Mastered by Scott Clugston
February 20, 2018


Set One:
t01 - Intro
t02 - Truckin'
t03 - Mama Tried
t04 - Bertha
t05 - Next Time You See Me
t06 - Cumberland Blues
t07 - Me & My Bobby McGee
t08 - Loser
t09 - Hard To Handle
t10 - China Cat Sunflower >
t11 - I Know You Rider
t12 - Casey Jones

Set Two:
t13 - Sugar Magnolia
t14 - Deal
t15 - Me & My Uncle
t16 - Bird Song
t17 - Tuning
t18 - Playin' In The Band
t19 - Tuning/Banter
t20 - Dire Wolf
t21 - Tuning
t22 - Searchin'
t23 - Riot In Cell Block #9
t24 - Good Vibrations
t25 - I Get Around
t26 - Help Me Rhonda
t27 - Okie From Muskogee
t28 - Johnny B. Goode
t29 - Sing Me Back Home
t30 - Uncle John's Band
t31 - Turn On Your Lovelight



    length     expanded size    cdr  WAVE problems  fmt   ratio  filename
     0:35.40        6268124 B   ---   --   ---xx   flac  0.4230  gd71-04-27 t01 Intro.flac
    10:36.34      112270412 B   ---   --   ---xx   flac  0.5547  gd71-04-27 t02 Truckin'.flac
     3:11.35       33774764 B   ---   --   ---xx   flac  0.5552  gd71-04-27 t03 Mama Tried.flac
     6:28.32       68518508 B   ---   --   ---xx   flac  0.5787  gd71-04-27 t04 Bertha.flac
     4:34.64       48484172 B   ---   --   ---xx   flac  0.5646  gd71-04-27 t05 Next Time You See Me.flac
     6:23.01       67563596 B   ---   --   ---xx   flac  0.5365  gd71-04-27 t06 Cumberland Blues.flac
     6:19.50       66973244 B   ---   --   ---xx   flac  0.5302  gd71-04-27 t07 Me & Bobby McGee.flac
     7:28.33       79104860 B   ---   --   ---xx   flac  0.5367  gd71-04-27 t08 Loser.flac
    10:12.54      108083852 B   ---   --   ---xx   flac  0.5406  gd71-04-27 t09 Hard To Handle.flac
     4:52.25       51567644 B   ---   --   ---xx   flac  0.5781  gd71-04-27 t10 China Cat Sunflower.flac
     6:04.64       64360172 B   ---   --   ---xx   flac  0.5708  gd71-04-27 t11 I Know You Rider.flac
     6:37.07       70047308 B   ---   --   ---xx   flac  0.5703  gd71-04-27 t12 Casey Jones.flac
     7:02.01       74443196 B   ---   --   ---xx   flac  0.5737  gd71-04-27 t13 Sugar Magnolia.flac
     5:56.39       62890172 B   ---   --   ---xx   flac  0.5476  gd71-04-27 t14 Deal.flac
     3:34.07       37766108 B   ---   --   ---xx   flac  0.5240  gd71-04-27 t15 Me & My Uncle.flac
     8:07.16       85944476 B   ---   --   ---xx   flac  0.5699  gd71-04-27 t16 Bird Song.flac
     1:58.46       20923436 B   ---   --   ---xx   flac  0.4002  gd71-04-27 t17 Tuning.flac
     4:46.24       50506892 B   ---   --   ---xx   flac  0.6184  gd71-04-27 t18 Playin' In The Band.flac
     4:31.47       47914988 B   ---   --   ---xx   flac  0.3981  gd71-04-27 t19 Tuning_Banter.flac
     3:53.71       41268236 B   ---   --   ---xx   flac  0.6116  gd71-04-27 t20 Dire Wolf.flac
     4:00.16       42373676 B   ---   --   ---xx   flac  0.4571  gd71-04-27 t21 Tuning.flac
     7:34.71       80252636 B   ---   --   ---xx   flac  0.5514  gd71-04-27 t22 Searchin'.flac
     7:55.34       83870012 B   ---   --   ---xx   flac  0.5205  gd71-04-27 t23 Riot In Cell Block #9.flac
     5:35.55       59223404 B   ---   --   ---xx   flac  0.5241  gd71-04-27 t24 Good Vibrations.flac
     2:47.70       29623484 B   ---   --   ---xx   flac  0.6007  gd71-04-27 t25 I Get Around.flac
     6:53.51       72973196 B   ---   --   ---xx   flac  0.5484  gd71-04-27 t26 Help Me Rhonda.flac
     3:40.24       38864492 B   ---   --   ---xx   flac  0.5641  gd71-04-27 t27 Okie From Muskogee.flac
     4:33.33       48234860 B   ---   --   ---xx   flac  0.5525  gd71-04-27 t28 Johnny B. Goode.flac
    10:03.68      106529180 B   ---   --   ---xx   flac  0.5232  gd71-04-27 t29 Sing Me Back Home.flac
     6:00.12       63532268 B   ---   --   ---xx   flac  0.5779  gd71-04-27 t30 Uncle John's Band.flac
    21:32.16      227946476 B   ---   --   ---xx   flac  0.5693  gd71-04-27 t31 Turn On Your Lovelight.flac
   193:53.15     2052097844 B                            0.5490  (31 files)


Show Checksums
ffp
gd71-04-27 t01 Intro.flac:57f43f750210182875f84b004c375910
gd71-04-27 t02 Truckin'.flac:f758ad3e2dfdceffa6a918ab6587811e
gd71-04-27 t03 Mama Tried.flac:478a61f7d73d4868dab87b8cf1104bb7
gd71-04-27 t04 Bertha.flac:5577ca83e0d824130bdd83e53c612ada
gd71-04-27 t05 Next Time You See Me.flac:530b9ea828d9542c525c1846d538effb
gd71-04-27 t06 Cumberland Blues.flac:492b86d2f7e7aca02da483d212d99777
gd71-04-27 t07 Me & Bobby McGee.flac:9d8829ffb3b09f779597ebcfd5760a79
gd71-04-27 t08 Loser.flac:5ed111da3dc25f56442b01b3ceacba8c
gd71-04-27 t09 Hard To Handle.flac:6dc8fe47c402fbae10449de0bfc87afd
gd71-04-27 t10 China Cat Sunflower.flac:12f24d632d748e079bd9815f59dec8b0
gd71-04-27 t11 I Know You Rider.flac:cc27a45034c29f0194b2e4c8e628392a
gd71-04-27 t12 Casey Jones.flac:b37424ca68a620eed37f061c75c91b2d
gd71-04-27 t13 Sugar Magnolia.flac:38a5c7e5d3a2843f93ed3701b5495cab
gd71-04-27 t14 Deal.flac:62c2bebe2bd3cd544d42919b24d7e173
gd71-04-27 t15 Me & My Uncle.flac:2c0b62def0b2b191c56f50a33a20f024
gd71-04-27 t16 Bird Song.flac:4f04026e37ce74e25163f76a2649821f
gd71-04-27 t17 Tuning.flac:51b09eee47dacfff977a77d47d59b3f0
gd71-04-27 t18 Playin' In The Band.flac:e757d0c7efe32809d241160ad59ba5b3
gd71-04-27 t19 Tuning_Banter.flac:68e420a5857ae632d1151b0ddce34f50
gd71-04-27 t20 Dire Wolf.flac:b5d6c91be765ca1b934a1cb2f9686b52
gd71-04-27 t21 Tuning.flac:8008e67004e5b70aab05576fd7681b04
gd71-04-27 t22 Searchin'.flac:3ebb12502d21101f12282ee6ad0d9a2f
gd71-04-27 t23 Riot In Cell Block #9.flac:480cc45e4c19d36c9c444c9f5a316231
gd71-04-27 t24 Good Vibrations.flac:d66a2186ea0623840a805f8f061fde3d
gd71-04-27 t25 I Get Around.flac:d412bb7de2f2c61d27b700897d2ccdce
gd71-04-27 t26 Help Me Rhonda.flac:fd9da3d838fadc9d4709779bfe2269c0
gd71-04-27 t27 Okie From Muskogee.flac:dbc61f75d27dc922cb07af6a48831a2d
gd71-04-27 t28 Johnny B. Goode.flac:6512100f1af67aedc291dcd5d0bf2682
gd71-04-27 t29 Sing Me Back Home.flac:3d7f4b058314da60a5a2c6d3707c90ce
gd71-04-27 t30 Uncle John's Band.flac:9da07338f09661d82820c5afe0d23eba
gd71-04-27 t31 Turn On Your Lovelight.flac:374d455b53820a96e11410c2e46bf4ad
flac-md5
802d8f3588f4252b31152e7c044b567a *gd71-04-27 t01 Intro.flac
850ef24c05b0f0c958b075e5100738d9 *gd71-04-27 t02 Truckin'.flac
3cddca16f45e7958efa133aecd4da8f2 *gd71-04-27 t03 Mama Tried.flac
2141a19f0261c1443288fb9d7702dd83 *gd71-04-27 t04 Bertha.flac
cd19bd5ac12bcf32055796bf2bb6d051 *gd71-04-27 t05 Next Time You See Me.flac
b9fd9dd235272aab2c49c93f851971a7 *gd71-04-27 t06 Cumberland Blues.flac
3660a449720d0af6e3ae729043ba51db *gd71-04-27 t07 Me & Bobby McGee.flac
0f88637755ca1254d265f4bf8d8a5b83 *gd71-04-27 t08 Loser.flac
49d5bb485aae1160bfea1929198ff97f *gd71-04-27 t09 Hard To Handle.flac
33d624a9e1cb2e1c1d5dcd9e7c5921c0 *gd71-04-27 t10 China Cat Sunflower.flac
c1b65ca0af338b5eca7940f0f06fd183 *gd71-04-27 t11 I Know You Rider.flac
f9ae18d85b431ae99c1f7961027a8765 *gd71-04-27 t12 Casey Jones.flac
98b76758376a6cede4ac5a915da0c76d *gd71-04-27 t13 Sugar Magnolia.flac
129cedeac9f81daf8d3d006886fe74dd *gd71-04-27 t14 Deal.flac
d4929c9d2f38012ace672c71a7bc4f2f *gd71-04-27 t15 Me & My Uncle.flac
e5413280754ae07a9d6389f4857ccc92 *gd71-04-27 t16 Bird Song.flac
398b6fdcb40e577c53dc4405cfe7fea0 *gd71-04-27 t17 Tuning.flac
0e9cc0d82325a10d70c500112cda76b7 *gd71-04-27 t18 Playin' In The Band.flac
58e1458a6c4ebc37cf8f9bcc3d1fa51e *gd71-04-27 t19 Tuning_Banter.flac
c7a3413379a5b7329c7f12cfe1afe35e *gd71-04-27 t20 Dire Wolf.flac
b382eeb0f26af6d15012d911c7897e1b *gd71-04-27 t21 Tuning.flac
87049d01898457e28405ff25400b217b *gd71-04-27 t22 Searchin'.flac
337bbf22bc2746e7871cd35b54dd0519 *gd71-04-27 t23 Riot In Cell Block #9.flac
b8782a4a2b78e6597f09c7cb0b90a078 *gd71-04-27 t24 Good Vibrations.flac
95624e598e9ed67b28bc34259130d89f *gd71-04-27 t25 I Get Around.flac
d2d3042c8c2174b3fb1930303a5ca80e *gd71-04-27 t26 Help Me Rhonda.flac
99ba5ced5a74396b9eaeed2f128e5f2b *gd71-04-27 t27 Okie From Muskogee.flac
8e14ce3661092dea659fb0b7b449d839 *gd71-04-27 t28 Johnny B. Goode.flac
a7353da7dd2fb25eec85f7da4e5daa2e *gd71-04-27 t29 Sing Me Back Home.flac
ef3d94b393516f4ad76eed5eca91c1f6 *gd71-04-27 t30 Uncle John's Band.flac
08101c64523d5abafdf44dd714ffd3eb *gd71-04-27 t31 Turn On Your Lovelight.flac

Comments
Add Comment
Other Sources (comments)
MSR 7 inch (7.5 ips) Revox... (6) SBD> MR> R> D> CD; EAC >... (1) MR> CDR and MR> R> CDR;... (2) mixed reel sources (see... (1) flac16; Recording... (0) flac24; Recording... (0) flac16; Lineage:[email protected] (0) flac16; Recording... (0)
Date User Comment