Browse Collections Artists Sources   Search Dates

Add Show    List Management    Help


Grateful Dead 04/17/87
Irvine Meadows, Irvine, CA
Comments Add Comment    Source Collectors    Add to Collection    Add to Want List    History
Source # 141131 Other Sources
Entered by Matt Vernon
Checksums ffp , flac-md5
Disc Counts 0 / 0
Media Size Compressed: 897.15 MB (940732416 bytes)
Date Circulated
Date Added
02/22/2018
02/22/2018
Source Summary flac16; Recording Info: UltraMatrix SBD > Cassette Master (TDK MA-R90); Transfer Info: Cassette Master (Nakamichi CR-7A) > Tascam DA-3000 (DSF 1-bit/5.8 MHz) > KORG AudioGate 4 > Adobe Audition CC2015 > Samplitude Pro X3 Suite > FLAC/24; All Transfers and Mastering By Charlie Miller 
  Archive
Source Information - Download Text | Download Zip
Grateful Dead - April 17, 1987
Irvine Meadows - Laguna Hills, CA

Recording Info:
UltraMatrix SBD > Cassette Master (TDK MA-R90)

Transfer Info:
Cassette Master (Nakamichi CR-7A) > Tascam DA-3000 (DSF 1-bit/5.8 MHz) >
KORG AudioGate 4 > Adobe Audition CC2015 > Samplitude Pro X3 Suite > FLAC/24
(1 Disc FLAC)

All Transfers and Mastering By Charlie Miller
[email protected]
February 20, 2018

Notes:
-- Mix changes in Cold Rain And Snow
-- Two sets of masters were used to make this show complete
-- This file set is 16 bit

Set 1:
01 - Cold Rain And Snow
02 - Little Red Rooster
03 - Friend Of The Devil
04 - It's All Over Now
05 - When Push Comes To Shove
06 - Desolation Row >
07 - Deal
08 - Bill Graham Announcements

Set 2:
09 - Tuning
10 - Touch Of Grey >
11 - Samson And Delilah
12 - Ship Of Fools
13 - Estimated Prophet >
14 - Eyes Of The World >
15 - Drums >
16 - Space >
17 - The Wheel >
18 - Truckin' >
19 - Stella Blue >
20 - Around And Around >
21 - Good Lovin'

Encore:
22 - Encore Break
23 - The Mighty Quinn (Quinn The Eskimo)


SHNTOOL OUTPUT:
    length     expanded size    cdr  WAVE problems  fmt   ratio  filename
     5:58.65       63304124 B   ---   --   ---xx   flac  0.6224  01 Cold Rain And Snow.flac
     9:41.28      102554300 B   ---   --   ---xx   flac  0.5791  02 Little Red Rooster.flac
     8:52.17       93884828 B   ---   --   ---xx   flac  0.5861  03 Friend Of The Devil.flac
     8:16.73       87666140 B   ---   --   ---xx   flac  0.5927  04 It's All Over Now.flac
     5:21.43       56725580 B   ---   --   ---xx   flac  0.5918  05 When Push Comes To Shove.flac
    10:18.18      109057580 B   ---   --   ---xx   flac  0.5987  06 Desolation Row.flac
     7:15.05       76745804 B   ---   --   ---xx   flac  0.6094  07 Deal.flac
     0:31.68        5628380 B   ---   --   ---xx   flac  0.5086  08 Bill Graham Announcement's.flac
     0:35.66        6329276 B   ---   --   ---xx   flac  0.4844  09 Tuning.flac
     6:09.20       65138684 B   ---   --   ---xx   flac  0.6275  10 Touch Of Grey.flac
     6:39.41       70480076 B   ---   --   ---xx   flac  0.6241  11 Samson And Delilah.flac
     9:23.07       99329708 B   ---   --   ---xx   flac  0.5848  12 Ship Of Fools.flac
     9:46.15      103405724 B   ---   --   ---xx   flac  0.6199  13 Estimated Prophet.flac
     7:51.55       83213804 B   ---   --   ---xx   flac  0.6256  14 Eyes Of The World.flac
     7:20.55       77745404 B   ---   --   ---xx   flac  0.5058  15 Drums.flac
     6:20.05       67043804 B   ---   --   ---xx   flac  0.5100  16 Space.flac
     4:30.28       47693900 B   ---   --   ---xx   flac  0.5987  17 The Wheel.flac
     7:05.14       75002972 B   ---   --   ---xx   flac  0.6257  18 Truckin'.flac
     8:33.20       90540284 B   ---   --   ---xx   flac  0.5644  19 Stella Blue.flac
     3:49.11       40421516 B   ---   --   ---xx   flac  0.6219  20 Around And Around.flac
     8:34.53       90794300 B   ---   --   ---xx   flac  0.6163  21 Good Lovin'.flac
     2:05.38       22139420 B   ---   --   ---xx   flac  0.4761  22 Encore Break.flac
     5:06.07       53994908 B   ---   --   ---xx   flac  0.6024  23 The Mighty Quinn (Quinn The Eskimo).flac
   150:07.02     1588840516 B                            0.5921  (23 files)


Show Checksums
ffp
01 Cold Rain And Snow.flac:b53143f17744691e657d330015193b37
02 Little Red Rooster.flac:12eca0a931362be592994f5c24ce81e9
03 Friend Of The Devil.flac:08c518ab5e1c94c68df6498dcd7b4da0
04 It's All Over Now.flac:edca1a16da1be8f1eebd86d26cc6cfca
05 When Push Comes To Shove.flac:6597d9cc6a1008f0c16f3fc7b4a4b685
06 Desolation Row.flac:3c6c451165a7798d1a719195a78756b6
07 Deal.flac:ae8fde762b0fed7e3cfdc5563e1a8abc
08 Bill Graham Announcement's.flac:bb9b0c2b0fd08824b803735fba438833
09 Tuning.flac:d2c7ae3560bfb062cf24d054f46f9c2e
10 Touch Of Grey.flac:99c6cefb659bb4352d19135f21ee57b8
11 Samson And Delilah.flac:7399e19751c289b62644f259d0de7258
12 Ship Of Fools.flac:78e42e8ed748e58257b2f215e64eee34
13 Estimated Prophet.flac:1bb0ddfa586aa432ab3239ee61eade1a
14 Eyes Of The World.flac:c9522ee41e860153c331f8e0e5908a66
15 Drums.flac:cb68f53ea2d553c356f4c8f94e8e9452
16 Space.flac:6e450d22ccf518ca3f2b89ac60910bc1
17 The Wheel.flac:2f1288c0938efe1ce9c03b276a33995f
18 Truckin'.flac:a1518bfbf6182d8eee183164a29583f9
19 Stella Blue.flac:7c9eda2638bc6f8ddcb51d542d339740
20 Around And Around.flac:0f2e8ed899a8719b2282091f090d018e
21 Good Lovin'.flac:901d62ec1e8f9a26ccbdb589cd4ffd8b
22 Encore Break.flac:981b76f97290e2b027627f3ae8fc8567
23 The Mighty Quinn (Quinn The Eskimo).flac:93445b47cad229e8abbbab894371d53d
flac-md5
35dd694f2d7baad7a0f70f6b1a0e2c2d *01 Cold Rain And Snow.flac
e346abc7a9bebb9c9ad457fdbd97abcc *02 Little Red Rooster.flac
1a03b7a46cff3050673a9875729ffcb4 *03 Friend Of The Devil.flac
4710c0b28bfd47e6115fea96201a1a5e *04 It's All Over Now.flac
7d974cc683a7b9504b134fabd7f0c77f *05 When Push Comes To Shove.flac
70c3d6d66e9de31e0b74df3a0dcc444d *06 Desolation Row.flac
b75e256db79bd69b068bbf673c72e3cd *07 Deal.flac
17f1cf5eb133a33cc85395fbffdfbb0e *08 Bill Graham Announcement's.flac
3bb92516467317d9799dada88218242c *09 Tuning.flac
ff09326277878cdd9cafa7a0ab2cf053 *10 Touch Of Grey.flac
2d4bf9a9ada9584766b78bdd974b20cf *11 Samson And Delilah.flac
2652c55348e4ebb4ceb232266b0bf4ea *12 Ship Of Fools.flac
237831dbdc0e85d2c8b4097b2492ef66 *13 Estimated Prophet.flac
97bac2296bad2fc2dfeff866feb1e2e6 *14 Eyes Of The World.flac
d6dc0797e887cf000be3c6cba5795daa *15 Drums.flac
593d5da532fd0a44ef16dacd3644683e *16 Space.flac
18644c9d228306d627713ce1aa47cb1d *17 The Wheel.flac
7b4adb37be9b2c6962b4adebb3d4db90 *18 Truckin'.flac
fb6fd9d13763d05f1f1560dbcab33035 *19 Stella Blue.flac
2bce2bed1c65970afb13c273b4862738 *20 Around And Around.flac
7cdd2414b4efc06191be1ebc79263df2 *21 Good Lovin'.flac
09765cd470bcc9a18a0281dce4bdf105 *22 Encore Break.flac
8d90dabbffbdbaad56f1fa725b487b08 *23 The Mighty Quinn (Quinn The Eskimo).flac

Comments
Add Comment
Other Sources (comments)
AUD>PCM>DAT>CDR; Schoeps... (0) Master Soundboard Casette >... (1) flac16; Recording... (0) flac16; MAC;... (0) flac24; Recording... (0)
Date User Comment