Browse Collections Artists Sources   Search Dates

Add Show    List Management    Help


Grateful Dead 02/26/94
Oakland-Alameda County Coliseum, Oakland, CA
Comments Add Comment    Source Collectors    Add to Collection    Add to Want List    History
Source # 141175 Other Sources
Entered by Matt Vernon
Checksums ffp , flac-md5
Disc Counts 0 / 0
Media Size
Date Circulated
Date Added

02/25/2018
Source Summary flac16/44.1 Source Info: Schoeps CMC 5 MK 4-> DAT Transfer Info: Dat Tape (Panasonic SV-3700)-> Marantz CDR-615-> CD (Late 90's) Extract Wav-> Flac Level 8-> Tagged (16/44.1) Transfers by Pete Ebel 
  Archive
Source Information - Download Text | Download Zip
Grateful Dead
Oakland Coliseum - Oakland - CA
February 26, 1994

Source Info:
Schoeps CMC 5 MK 4-> DAT

Transfer Info:
Dat Tape (Panasonic SV-3700)-> Marantz CDR-615-> CD (Late 90's)
Extract Wav-> Flac Level 8-> Tagged (16/44.1)


Transfers by Pete Ebel
90's and February 22, 2018


Notes:
Set #2 is Seamless


Set #1:
01. Cold Rain & Snow
02. Wang Dang Doodle
03. Althea
04. Black Throated Wind
05. Loose Lucy
06. Broken Arrow
07. Music Never Stopped

Set #2:
08. Tuning
09. Eyes Of The World
10. Estimated Prophet
11. Terrapin Station
12. Drumz
13. Space
14. I Need A Miracle
15. Standing On The Moon
16. One More Saturday Night

Encore:
17. Liberty




SHNTOOL OUTPUT:
    length     expanded size    cdr  WAVE problems  fmt   ratio  filename
     7:17.59       77225612 B   ---   --   ---xx   flac  0.5678  01 Cold Rain & Snow.flac
     8:37.33       91276460 B   ---   --   ---xx   flac  0.5335  02 Wang Dang Doodle.flac
     9:41.22      102540188 B   ---   --   ---xx   flac  0.5278  03 Althea.flac
     6:15.11       66175916 B   ---   --   ---xx   flac  0.5623  04 Black Throated Wind.flac
     9:16.11       98104316 B   ---   --   ---xx   flac  0.5419  05 Loose Lucy.flac
     6:33.32       69400508 B   ---   --   ---xx   flac  0.5234  06 Broken Arrow.flac
     9:46.11      103396316 B   ---   --   ---xx   flac  0.5590  07 Music Never Stopped.flac
     1:57.12       20667068 B   ---   --   ---xx   flac  0.3774  08 Tuning.flac
    16:17.16      172380476 B   ---   --   ---xx   flac  0.5422  09 Eyes Of The World.flac
    12:17.19      130051532 B   ---   --   ---xx   flac  0.5571  10 Estimated Prophet.flac
    19:42.09      208526012 B   ---   --   ---xx   flac  0.5508  11 Terrapin Station.flac
    15:04.51      159585596 B   ---   --   ---xx   flac  0.4602  12 Drumz.flac
     9:19.36       98692316 B   ---   --   ---xx   flac  0.3791  13 Space.flac
     7:24.44       78425132 B   ---   --   ---xx   flac  0.5389  14 I Need A Miracle.flac
     9:02.19       95653532 B   ---   --   ---xx   flac  0.5395  15 Standing On The Moon.flac
     8:28.28       89677100 B   ---   --   ---xx   flac  0.5296  16 One More Saturday Night.flac
     8:35.04       90855452 B   ---   --   ---xx   flac  0.5333  17 Liberty.flac
   165:35.42     1752633532 B                            0.5252  (17 files)




Show Checksums
ffp
01 Cold Rain & Snow.flac:1fdce839ace5d2e5bbd16d3a33bc76a0
02 Wang Dang Doodle.flac:4f9ff01222d34355eda28e4b64877eca
03 Althea.flac:4337a9d31a31fb23bea8c2d3d059188a
04 Black Throated Wind.flac:3b9b06a482c34fa02c7b7f810ae5d70a
05 Loose Lucy.flac:fdf1ff305cb6f5a8a2b5355df34588ea
06 Broken Arrow.flac:8ecf5a66ceeb4ff27ce2db483ff5d41b
07 Music Never Stopped.flac:8e6020e8aa5281d6f8709bbedea63349
08 Tuning.flac:2511a78daddfe8f5bd0dae784f9a732b
09 Eyes Of The World.flac:bf89ae5a53479cdf5ae65aef69268df8
10 Estimated Prophet.flac:0613d1283dbf301886451c59bfce369a
11 Terrapin Station.flac:122babe4257f9f8a1a376904354c8d30
12 Drumz.flac:afea5258fd6b7e4d661798fc665d65d4
13 Space.flac:461c66cfc47535303be0af7c784a8472
14 I Need A Miracle.flac:d47d5d557d69af0882d5d77eae4fee25
15 Standing On The Moon.flac:c9f549caf83cf8f66e46c3ec9d5a8a0e
16 One More Saturday Night.flac:efec14b314d0992afd76e1b340f70b56
17 Liberty.flac:4cd749424bc9c043d4cdeae680c45fb7
flac-md5
4a03cc024d5debeab778a66bfdabbd01 *01 Cold Rain & Snow.flac
5ca29afe704330cc41e61aa5d1273fb6 *02 Wang Dang Doodle.flac
a25ad8dac1b59712e366658990a3c43d *03 Althea.flac
fba7c7cf907abd4590e543198d43c8d6 *04 Black Throated Wind.flac
1e5a6eb93fe6a4368339c6a3fd67fd62 *05 Loose Lucy.flac
79fd65e7b4edbb9e433d61c2e66b07d9 *06 Broken Arrow.flac
b3896dac048eb76fce2fba712d722834 *07 Music Never Stopped.flac
97179c0b579098c0543ae800c2f1cbca *08 Tuning.flac
c755984ce87bdf013aedfaa251544948 *09 Eyes Of The World.flac
fdbab7a1aba58edfe12c2cf300e721db *10 Estimated Prophet.flac
11fde656f577db91d842a4ebf7be2f40 *11 Terrapin Station.flac
7fe4df1fff13a179bb3fdb46d5b3dfed *12 Drumz.flac
9d789056daa7ef1da4d13052429a9338 *13 Space.flac
0ec8dcf5e331ddace586bf5967e56870 *14 I Need A Miracle.flac
d35901d58d76cfa06ea0670cbcab421c *15 Standing On The Moon.flac
9afa9b9798d416f6821941fa2ebcbd16 *16 One More Saturday Night.flac
ff2fecd3537b638dc14726796a97ffce *17 Liberty.flac

Comments
Add Comment
Other Sources (comments)
Neumann KM84 -> Dat(48k)... (0) flac16/48kHz; FOB... (0)
Date User Comment