Browse Collections Artists Sources   Search Dates

Add Show    List Management    Help


Grateful Dead 08/01/94
The Palace, Auburn Hills, MI
Comments Add Comment    Source Collectors    Add to Collection    Add to Want List    History
Source # 141177 Other Sources
Entered by Matt Vernon
Checksums ffp , flac-md5
Disc Counts 0 / 0
Media Size
Date Circulated
Date Added

02/25/2018
Source Summary flac16/44.1 Source Info: Set #1: TS? Schoeps CMC5 Mk4->Oade P/S-> Sony D10 Pro II-> DAT Set #2: FOB Schoeps MK4-> Reutelhuber P/S-> DAT (Ace Cubby) Transfer Info: Dat Tape (Panasonic SV-3700)-> Marantz CDR-615-> CD (Late 90's) Extract Wav-> Flac Level 8-> Tagged (16/44.1) Transfers by Pete Ebel 
  Archive
Source Information - Download Text | Download Zip
Grateful Dead
The Palace - Auburn Hills - MI
August 1, 1994

Source Info:
Set #1: TS? Schoeps CMC5 Mk4->Oade P/S-> Sony D10 Pro II-> DAT
Set #2: FOB Schoeps MK4-> Reutelhuber P/S-> DAT (Ace Cubby)

Transfer Info:
Dat Tape (Panasonic SV-3700)-> Marantz CDR-615-> CD (Late 90's)
Extract Wav-> Flac Level 8-> Tagged (16/44.1)


Transfers by Pete Ebel
Late 90's and February 2, 2018


Notes:
Jerry's Birthday!!!
Set #2 is Seamless


Set #1:
01. Tuning
02. Mickey Mouse & Adams Family Theme
03. Picasso Moon
04. Peggy' O
05. The Same Thing
06. Stagger Lee
07. Childhoods End
08. Music Never Stopped

Set #2:
09. Tuning
10. Victim Or The Crime
11. Scarlet Begonias
12. Fire On The Mountain
13. Samba In The Rain
14. Estimated Prophet
15. Drumz
16. Space
17. All A Long The Watchower
18. Stella Blue
19. Satisfaction

Encore:
20. Liberty




SHNTOOL OUTPUT:
    length     expanded size    cdr  WAVE problems  fmt   ratio  filename
     2:28.72       26276588 B   ---   --   ---xx   flac  0.4259  01 Tuning.flac
     0:59.30       10478204 B   ---   --   ---xx   flac  0.4831  02 Micky Mouse & Adams Family Theme.flac
     7:17.37       77173868 B   ---   --   ---xx   flac  0.5459  03 Picasso Moon.flac
     6:39.65       70536524 B   ---   --   ---xx   flac  0.4867  04 Peggy' O.flac
     7:37.03       80621900 B   ---   --   ---xx   flac  0.4933  05 The Same Thing.flac
     9:12.55       97502204 B   ---   --   ---xx   flac  0.5180  06 Stagger Lee.flac
     4:50.16       51193676 B   ---   --   ---xx   flac  0.4988  07 Childhoods End.flac
    12:42.14      134449772 B   ---   --   ---xx   flac  0.5233  08 Music Never Stopped.flac
     2:52.53       30465500 B   ---   --   ---xx   flac  0.4265  09 Tuning.flac
     9:21.10       98983964 B   ---   --   ---xx   flac  0.5620  10 Victim Or The Crime.flac
     9:08.17       96707228 B   ---   --   ---xx   flac  0.5548  11 Scarlet Begonias.flac
    14:47.30      156537404 B   ---   --   ---xx   flac  0.5593  12 Fire On The Mountain.flac
     8:05.73       85725740 B   ---   --   ---xx   flac  0.5854  13 Samba In The Rain.flac
    17:23.31      184058156 B   ---   --   ---xx   flac  0.5412  14 Estimated Prophet.flac
    12:42.38      134506220 B   ---   --   ---xx   flac  0.4737  15 Drumz.flac
    17:23.16      184022876 B   ---   --   ---xx   flac  0.4480  16 Space.flac
     7:33.25       79968044 B   ---   --   ---xx   flac  0.5854  17 Watchtower.flac
     7:35.01       80264396 B   ---   --   ---xx   flac  0.5325  18 Stella Blue.flac
     7:59.27       84559148 B   ---   --   ---xx   flac  0.6111  19 Satisfaction.flac
     8:09.52       86381948 B   ---   --   ---xx   flac  0.5766  20 Liberty.flac
   174:49.65     1850413360 B                            0.5273  (20 files)



Show Checksums
ffp
01 Tuning.flac:f06693645e45b4a54029a8ede3bc51e2
02 Micky Mouse & Adams Family Theme.flac:5dcf04568e121d4f59656fbc7c47050d
03 Picasso Moon.flac:023dacc7ab43dd44e76b8e017a3b8de3
04 Peggy' O.flac:5266501cfda8ceec91016f8795c3ef38
05 The Same Thing.flac:1d7619bb1500efef6545ba9ba93ff3fd
06 Stagger Lee.flac:c000f986f1e845ac9eba7b8c590df2d4
07 Childhoods End.flac:d4a42c358ef48a7068b3803017674527
08 Music Never Stopped.flac:e8acd181df4e7d02f8e60c90575ce7d5
09 Tuning.flac:abdc5b0ac3ba5d04ff8bbc7fd857b05e
10 Victim Or The Crime.flac:0dd3f4c459d64053f440c4688df1043b
11 Scarlet Begonias.flac:0bb2724ef3b0d67582d4d0a692997e79
12 Fire On The Mountain.flac:2e15391fc60bb2a744c56a7e74206b56
13 Samba In The Rain.flac:e9b9c7cf7a944a2bd13da4e339c9c5b0
14 Estimated Prophet.flac:c56d012bb7508ecd3f3d698f654f463d
15 Drumz.flac:8959360c7552a468c473a2bd455257b2
16 Space.flac:3ba7faff38a394474f552a675dc3ba02
17 Watchtower.flac:d314c0ba3740036ad88835601634c1cd
18 Stella Blue.flac:8776826dd4e41f7a9ebfe833827131a0
19 Satisfaction.flac:05f3460734a3874186cc73b3d4c34d76
20 Liberty.flac:05734c0e96d3f5501021af9d784e9faf
flac-md5
c50695e1e8f8377d98948c4aa3216de1 *01 Tuning.flac
0ad5cd406a7bb26743a3120cb03c3b31 *02 Micky Mouse & Adams Family Theme.flac
9584a5f75e5ba7a8afd7181585a8ec4b *03 Picasso Moon.flac
ba024b8c90c5132e8842b2c4c3d711c0 *04 Peggy' O.flac
44dc9188dd2797559e40982a0e32a217 *05 The Same Thing.flac
b3b5d63f09d48da528e79cd332e27da0 *06 Stagger Lee.flac
43c30e98b0f4fbf9123d96940707f50e *07 Childhoods End.flac
479f8932b473c7721bca96c8bb7033fe *08 Music Never Stopped.flac
5905bbf6826d644700c0c40bac415be4 *09 Tuning.flac
35b3fbf4bfc5ce43838694220f755626 *10 Victim Or The Crime.flac
6b4eadc28bc05fb8f99e06f8e128e716 *11 Scarlet Begonias.flac
73c070ece8f4ff28fda952000e14e4b0 *12 Fire On The Mountain.flac
7004e65685853cb39cdd7199485bb7df *13 Samba In The Rain.flac
53fec54cd5478c9d2f44d92e0d1a6043 *14 Estimated Prophet.flac
680138a5626c9a3b2d95c8d1bb924eb1 *15 Drumz.flac
a37d4f363a4f38ce89dfece57f170030 *16 Space.flac
ae412f6696b79b4ce6ccabd86375a78a *17 Watchtower.flac
6dd10b5014f259bfbde4c54b4452dcf2 *18 Stella Blue.flac
5f38bb61e0441d6ce4c0293bbae6922c *19 Satisfaction.flac
aa27cb1c65f988ebd5aa4039c225d3f5 *20 Liberty.flac

Comments
Add Comment
Other Sources (comments)
set 2; DSBD> CD> EAC; via... (5) Neumann TLM 170i's... (0) flac16; Schoeps... (0)
Date User Comment