Browse Collections Artists Sources   Search Dates

Add Show    List Management    Help


Grateful Dead 02/22/93
Oakland-Alameda County Coliseum, Oakland, CA
Comments Add Comment    Source Collectors    Add to Collection    Add to Want List    History
Source # 141178 Other Sources
Entered by Matt Vernon
Checksums ffp , flac-md5
Disc Counts 0 / 0
Media Size
Date Circulated
Date Added

02/25/2018
Source Summary flac16/44.1 Source Info: FOB Schoeps CMC 5 MK 4-> DAT Transfer Info: DAT Tape (Panasonic SV-3700) -> Coxial SPDIF-> Marantz PMD 661 MKII (Solid State Recorder)-> SD Card-> Wav-> Flac Level 8-> Tagged (16/48) Transfers by Pete Ebel 
  Archive
Source Information - Download Text | Download Zip
Grateful Dead
Oakland Coliseum - Oakland - CA
February 22, 1993


Source Info:
FOB Schoeps CMC 5 MK 4-> DAT


Transfer Info:
DAT Tape (Panasonic SV-3700) -> Coxial SPDIF-> Marantz PMD 661 MKII (Solid State Recorder)->
SD Card-> Wav-> Flac Level 8-> Tagged (16/48)



Transfers by Pete Ebel
February 16, 2018


Notes:
* First Time Played
* Set #2 Is Seamless
* Transfer From DAT -> Wav (48k)


Set #1:
01. Hell In A Bucket
02. Sugaree
03. Walking Blues
04. Althea
05. Masterpiece
06. So Many Roads
07. Cassidy
08. Don't Ease Me In

Set #2:
09. Tuning
10. Saint Of Circumstance
11. Scarlet Begonias
12. Fire On The Mountain
13. Wave To The Wind
14. Drumz
15. Space
16. The Days Between *
17. Throwing Stones
18. Not Fade Away

Encore:
19. Knockin' On Heavens Door




SHNTOOL OUTPUT:
    length     expanded size    cdr  WAVE problems  fmt   ratio  filename
     6:36.760      76177964 B   cxx   --   ---xx   flac  0.4582  01 Hell In A Bucket.flac
    12:10.387     140234284 B   cxx   --   ---xx   flac  0.4474  02 Sugaree.flac
     7:46.573      89582124 B   cxx   --   ---xx   flac  0.4343  03 Walking Blues.flac
     9:59.640     115130924 B   cxx   --   ---xx   flac  0.4257  04 Althea.flac
     7:14.773      83476524 B   cxx   --   ---xx   flac  0.4246  05 Masterpiece.flac
     8:14.587      94960684 B   cxx   --   ---xx   flac  0.4073  06 So Many Roads.flac
     7:22.933      85043244 B   cxx   --   ---xx   flac  0.4429  07 Cassidy.flac
     3:42.013      42626604 B   cxx   --   ---xx   flac  0.4616  08 Don't Ease Me In.flac
     2:19.587      26800684 B   cxx   --   ---xx   flac  0.3025  09 Tuning.flac
     7:34.240      87214124 B   cxx   --   ---xx   flac  0.3971  10 Saint Of Circumstance.flac
    10:35.533     122022444 B   cxx   --   ---xx   flac  0.3793  11 Scarlet Begonias.flac
    12:50.853     148003884 B   cxx   --   ---xx   flac  0.3951  12 Fire On The Mountain.flac
     7:48.053      89866284 B   cxx   --   ---xx   flac  0.4048  13 Wave To The Wind.flac
    14:28.467     166745644 B   cxx   --   ---xx   flac  0.2998  14 Drumz.flac
    13:42.800     157977644 B   cxx   --   ---xx   flac  0.2746  15 Space.flac
    10:21.640     119354924 B   cxx   --   ---xx   flac  0.3453  16 The Days Between.flac
     9:12.053     105994284 B   cxx   --   ---xx   flac  0.4211  17 Throwing Stones.flac
    12:48.573     147566124 B   cxx   --   ---xx   flac  0.4072  18 Not Fade Away.flac
     7:13.667      83264044 B   cxx   --   ---xx   flac  0.3830  19 Knockin' On Heavens Door.flac
   172:03.133    1982042436 B                            0.3896  (19 files)



Show Checksums
ffp
01 Hell In A Bucket.flac:f6fd7be58b153e3e17916b4318afafbe
02 Sugaree.flac:56a269e78441baf61dba6830ea7b60a5
03 Walking Blues.flac:dab0543a21228b7216fc38df644517e4
04 Althea.flac:7e0e6221cc7c73a0e67ef7dd31af163d
05 Masterpiece.flac:ca1ec4646a29fa6f10794805d3599335
06 So Many Roads.flac:02eaa1ce403d4580ebaf35f264198328
07 Cassidy.flac:7469c576a5604b0eea912e02945b57a2
08 Don't Ease Me In.flac:399f897d7dcc5faec9596e176980f651
09 Tuning.flac:1c443e01d89b9651921aa931be511330
10 Saint Of Circumstance.flac:37c2bcd31cc33ae29ce356341921a331
11 Scarlet Begonias.flac:1203f5fc4649c7d587ddc79dde5c42fd
12 Fire On The Mountain.flac:e8af5c96ea0e46036f7404c8009c031c
13 Wave To The Wind.flac:fbf72eaae2eddd865777794279bcfde1
14 Drumz.flac:7d02bc906f7c43b302642fda68491a0e
15 Space.flac:8d9d6e696d8b9e0390b7b2a704789241
16 The Days Between.flac:f0e464a67450a0ef296b425e41af631a
17 Throwing Stones.flac:b8ad7cabf51e469fee264f0deb8ffe74
18 Not Fade Away.flac:e15db73d6632969ee2a90042f841f06f
19 Knockin' On Heavens Door.flac:4c60b1ef0eb1730fa15e94e99864ca91
flac-md5
d259e94fa124cc74af8c491fea785aae *01 Hell In A Bucket.flac
e6e95db83747803f013340b5bd7e924e *02 Sugaree.flac
df12b44a423ff7aa9c9aacfd7103a040 *03 Walking Blues.flac
cc10dd3a1f8618c70a4a0bf56d906635 *04 Althea.flac
e6c2347d09926a66c54ce594e3fd695b *05 Masterpiece.flac
a9c03b0808b49f7fb4320301ec1041b4 *06 So Many Roads.flac
6f7fc7d073d9fa5ddfcdc39eaa21f49d *07 Cassidy.flac
e0ca5a7c6614819499dd6130d823169f *08 Don't Ease Me In.flac
26e5890f66db363034689274b9b70483 *09 Tuning.flac
c4007982b2491d344696c25e8f8c7c06 *10 Saint Of Circumstance.flac
f7e1d8aa577b887781d461f03efb58e4 *11 Scarlet Begonias.flac
55ff6b9b90962460eda430b8c6efbd59 *12 Fire On The Mountain.flac
e6877e72f306ed20915e58a329dacccd *13 Wave To The Wind.flac
d801d851943ba3ed0726c07adb01f778 *14 Drumz.flac
7d47d579983252800250f667ad060911 *15 Space.flac
b06df9812853112c490883b7c8333603 *16 The Days Between.flac
16578db5d78b80d47e7891688a923d45 *17 Throwing Stones.flac
7d9e5ab446acf55ba222d6d694fcc7c4 *18 Not Fade Away.flac
8b2893e9da5cda8470027d6ae6545b8f *19 Knockin' On Heavens Door.flac

Comments
Add Comment
Other Sources (comments)
DSBD: DAT > DAT > CD... (0) flac16; source: 2... (0) flac16; Recording... (0)
Date User Comment