Browse Collections Artists Sources   Search Dates

Add Show    List Management    Help


Grateful Dead 03/27/88
Hampton Coliseum, Hampton, VA
Comments Add Comment    Source Collectors    Add to Collection    Add to Want List    History
Source # 141213 Other Sources
Entered by Matt Vernon
Checksums ffp , flac-md5
Disc Counts 0 / 0
Media Size
Date Circulated
Date Added
02/27/2018
02/27/2018
Source Summary flac24; Recording Info: UltraMatrix SBD > Cassette Master (TDK MA-R90/TDK SA-90); Transfer Info: Cassette Master (Nakamichi CR-7A) > Tascam DA-3000 (DSF 1-bit/5.8 MHz) > KORG AudioGate 4 > Samplitude Pro X3 Suite > FLAC/24; All Transfers and Mastering By Charlie Miller 
  Archive
Source Information - Download Text | Download Zip
Grateful Dead - March 27, 1988
Hampton Coliseum - Hampton, VA

Recording Info:
UltraMatrix SBD > Cassette Master (TDK MA-R90/TDK SA-90)

Transfer Info:
Cassette Master (Nakamichi CR-7A) > Tascam DA-3000 (DSF 1-bit/5.8 MHz) >
KORG AudioGate 4 > Samplitude Pro X3 Suite > FLAC/24
(1 Disc FLAC)

All Transfers and Mastering By Charlie Miller
[email protected]
February 27, 2018

Notes:
-- Two sets of masters were used to make this show complete

Set 1:
01 - Tuning
02 - Iko Iko
03 - Little Red Rooster
04 - Stagger Lee
05 - Ballad Of A Thin Man >
06 - Cumberland Blues >
07 - Me And My Uncle >
08 - To Lay Me Down >
09 - Let It Grow

Set 2:
10 - Space >
11 - So What >
12 - Sugar Magnolia >
13 - Scarlet Begonias >
14 - Fire On The Mountain >
15 - Estimated Prophet >
16 - Eyes Of The World >
17 - Drums >
18 - Space >
19 - Goin' Down The Road Feeling Bad >
20 - I Need A Miracle >
21 - Dear Mr. Fantasy >
22 - Sunshine Daydream

Encore:
23 - Encore Break
24 - U.S. Blues


SHNTOOL OUTPUT:
    length     expanded size    cdr  WAVE problems  fmt   ratio  filename
     0:29.101      16762238 B   cxx   --   ---xx   flac  0.6539  01 Tuning.flac
     5:01.843     173861468 B   cxx   --   ---xx   flac  0.6813  02 Iko Iko.flac
     9:44.743     336811838 B   cxx   --   ---xx   flac  0.6854  03 Little Red Rooster.flac
     6:20.168     218976650 B   cxx   --   ---xx   flac  0.6798  04 Stagger Lee.flac
     7:04.479     244499948 B   cxx   --   ---xx   flac  0.6970  05 Ballad Of A Thin Man.flac
     5:01.878     173881532 B   cxx   --   ---xx   flac  0.7023  06 Cumberland Blues.flac
     3:10.792     109896134 B   cxx   --   ---xx   flac  0.7001  07 Me And My Uncle.flac
     8:01.899     277573646 B   cxx   --   ---xx   flac  0.6755  08 To Lay Me Down.flac
    11:45.556     406400582 B   cxx   --   ---xx   flac  0.6860  09 Let It Grow.flac
     2:15.681      78152264 B   cxx   --   ---xx   flac  0.6786  10 Space.flac
     0:59.462      34250390 B   cxx   --   ---xx   flac  0.6937  11 So What.flac
     5:10.398     178789376 B   cxx   --   ---xx   flac  0.7151  12 Sugar Magnolia.flac
    10:53.765     376568780 B   cxx   --   ---xx   flac  0.7165  13 Scarlet Begonias.flac
    10:38.388     367711478 B   cxx   --   ---xx   flac  0.7059  14 Fire On The Mountain.flac
    10:28.598     362072222 B   cxx   --   ---xx   flac  0.7070  15 Estimated Propeht.flac
     8:29.254     293330372 B   cxx   --   ---xx   flac  0.7153  16 Eyes Of The World.flac
     7:37.176     263333402 B   cxx   --   ---xx   flac  0.6657  17 Drums.flac
     7:18.573     252617906 B   cxx   --   ---xx   flac  0.6770  18 Space.flac
     5:49.702     201428114 B   cxx   --   ---xx   flac  0.7134  19 Goin' Down The Road Feeling Bad.flac
     3:20.430     115447544 B   cxx   --   ---xx   flac  0.7250  20 I Need A Miracle.flac
     4:52.936     168731414 B   cxx   --   ---xx   flac  0.7206  21 Dear Mr Fantasy.flac
     3:58.249     137231606 B   cxx   --   ---xx   flac  0.7200  22 Sunshine Daydream.flac
     1:48.741      62634764 B   cxx   --   ---xx   flac  0.6855  23 Encore Break.flac
     6:25.331     221950748 B   cxx   --   ---xx   flac  0.7135  24 US Blues.flac
   146:47.141    5072914416 B                            0.6979  (24 files)


Show Checksums
ffp
01 Tuning.flac:1cb9d17e80072ea1ab497f578b8766fb
02 Iko Iko.flac:2eda4283b40cb8f52ef6811a29ce0425
03 Little Red Rooster.flac:e5acefc80eea0d7937a7352dc2c55f92
04 Stagger Lee.flac:260974673c53d4e31209df77f5df949f
05 Ballad Of A Thin Man.flac:689d3a1425f0cbdce0974fdf8536ae1e
06 Cumberland Blues.flac:dee4bc04fa9df81817a4cc7c11de6ea8
07 Me And My Uncle.flac:0300d6de2ca1536b66bd603b752c251d
08 To Lay Me Down.flac:be21c9eb4653776eeb91f009ab7a5c34
09 Let It Grow.flac:135fd7ee645cd0f44491cc7c0c16548d
10 Space.flac:39581f9d44b89a98e202dbc2faef04d9
11 So What.flac:2e857b54b7c39157c30663066c62b67b
12 Sugar Magnolia.flac:41ef0ce7a6cf84f5e14ef67494d3acf6
13 Scarlet Begonias.flac:d1c69f989df95e435878f4ef5d6baeb3
14 Fire On The Mountain.flac:f29f56555c92fbc372e54d5a4d15811a
15 Estimated Propeht.flac:4a07445f7da671e4d57698a672cfa14a
16 Eyes Of The World.flac:c898b1a4fab566af660a35a8c6209cf3
17 Drums.flac:c3c212bfc44e2515f9de86b6f52a734b
18 Space.flac:ffa6a1ce487af5c44e7bf5bcea2952af
19 Goin' Down The Road Feeling Bad.flac:f05f72dd38580386c6f241a7a332c49d
20 I Need A Miracle.flac:f26497938032925f724d771f87943e22
21 Dear Mr Fantasy.flac:84782b67a301f06c76e17b6a0423dd2e
22 Sunshine Daydream.flac:5ec56ba1f8e0a137f427762b524baead
23 Encore Break.flac:4cec4e7622846339ea2055867fadd604
24 US Blues.flac:8ed48990f93f814b27ae8a83796bae7a
flac-md5
bf5197d8e93eb393fbc02e6d88ce802a *01 Tuning.flac
c36c0e609e0d702bd49aea952e341153 *02 Iko Iko.flac
407b64d8a8bc2446c15000effec03dd9 *03 Little Red Rooster.flac
1719502f7d12d9d3b18159ebaa20c381 *04 Stagger Lee.flac
7f6e3d06564b31bfc9dc456eb22b3f78 *05 Ballad Of A Thin Man.flac
56b2cc02d0e8d2a39238c7330ac8cd6f *06 Cumberland Blues.flac
c586f8a768f48d6992b1966c7f5f3943 *07 Me And My Uncle.flac
fe7671284a001c4297dbfcdf8f2fee93 *08 To Lay Me Down.flac
27805aad25edc12d65ce334171e0e566 *09 Let It Grow.flac
0ea32d2b60e0c06464b8be46b5ec9d3c *10 Space.flac
66a803ba4de18ba438b2be7c90c5600c *11 So What.flac
96dda7900b63c05c13fe03992b4e1e9f *12 Sugar Magnolia.flac
954a56c80dbb4ab2ce5d63337affb2f8 *13 Scarlet Begonias.flac
32a8083689eefe695bc1737558ac7200 *14 Fire On The Mountain.flac
fda7785c081116a443c959a02f57f5e8 *15 Estimated Propeht.flac
0e58fa3f2d3edd7414c262f7c2758e86 *16 Eyes Of The World.flac
c19bc37840f606b302ab9617ae383316 *17 Drums.flac
57f95bdac0b7eded1c1995b6a7757e85 *18 Space.flac
51770d811888bb6c372847cb96800782 *19 Goin' Down The Road Feeling Bad.flac
6fd92997f5bb20f8ad97cd42da2ec0b3 *20 I Need A Miracle.flac
bd4b07e3316763df1b4131a9ece18890 *21 Dear Mr Fantasy.flac
a6dd8a863c6d118f79ae47eee2b2181b *22 Sunshine Daydream.flac
0b7a97a88bb29aa9a7d4afd2ebafa9a6 *23 Encore Break.flac
42c2c06622d2d85a1de3550ab3be389c *24 US Blues.flac

Comments
Add Comment
Other Sources (comments)
SBD (Matrix)> DAT> CD> EAC>... (3) patched version of (3) Updated Source info:... (11) flac16; Source: in... (0) flac16; Source: FOB... (0) flac16; Recorded by... (0) flac16; Master: OTS... (0) flac16; Set 2... (0) flac16; Recording... (0)
Date User Comment