Browse Collections Artists Sources   Search Dates

Add Show    List Management    Help


Grateful Dead 04/18/87
Irvine Meadows, Irvine, CA
Comments Add Comment    Source Collectors    Add to Collection    Add to Want List    History
Source # 141231 Other Sources
Entered by Matt Vernon
Checksums ffp , flac-md5
Disc Counts 0 / 0
Media Size Compressed: 890.07 MB (933310464 bytes)
Date Circulated
Date Added
03/01/2018
03/01/2018
Source Summary flac16; Recording Info: UltraMatrix SBD > Cassette Master (TDK MA-R90); Transfer Info: Cassette Master (Nakamichi CR-7A) > Tascam DA-3000 (DSF 1-bit/5.6 MHz) > KORG AudioGate 4 > Adobe Audition CC2015 > Samplitude Pro X3 Suite > FLAC/24; All Transfers and Mastering By Charlie Miller 
  Archive
Source Information - Download Text | Download Zip
Grateful Dead - April 18, 1987
Irvine Meadows - Laguna Hills, CA

Recording Info:
UltraMatrix SBD > Cassette Master (TDK MA-R90)

Transfer Info:
Cassette Master (Nakamichi CR-7A) > Tascam DA-3000 (DSF 1-bit/5.6 MHz) >
KORG AudioGate 4 > Adobe Audition CC2015 > Samplitude Pro X3 Suite > FLAC/24
(1 Disc FLAC)

All Transfers and Mastering By Charlie Miller
[email protected]
March 1, 2018

Notes:
-- They never finished Morning Dew
-- Two sets of masters were used to make this show complete
-- This file set is 16 bit

Set 1:
01 - Tuning
02 - Hell In A Bucket >
03 - Sugaree
04 - Me And My Uncle >
05 - Mexicali Blues
06 - West L.A. Fadeaway
07 - Far From Me
08 - Row Jimmy
09 - Tuning Medley
10 - Let It Grow >
11 - Don't Ease Me In

Set 2:
12 - Tuning
13 - Iko Iko >
14 - Playing In The Band >
15 - Terrapin Station >
16 - Drums >
17 - Space >
18 - Gimme Some Lovin' >
19 - Morning Dew >
20 - Throwing Stones >
21 - Turn On Your Lovelight

Encore:
22 - Encore Break
23 - Black Muddy River


SHNTOOL OUTPUT:
    length     expanded size    cdr  WAVE problems  fmt   ratio  filename
     1:03.47       11223788 B   ---   --   ---xx   flac  0.5082  01 Tuning.flac
     5:42.08       60347660 B   ---   --   ---xx   flac  0.6136  02 Hell In A Bucket.flac
    11:07.25      117717644 B   ---   --   ---xx   flac  0.5818  03 Sugaree.flac
     3:02.26       32165996 B   ---   --   ---xx   flac  0.6082  04 Me And My Uncle.flac
     5:22.56       56932556 B   ---   --   ---xx   flac  0.6080  05 Mexicali Blues.flac
     7:55.31       83862956 B   ---   --   ---xx   flac  0.5816  06 West LA Fadeaway.flac
     4:54.33       51939260 B   ---   --   ---xx   flac  0.6060  07 Far From Me.flac
    12:11.25      129007244 B   ---   --   ---xx   flac  0.5610  08 Row Jimmy.flac
     1:06.06       11656556 B   ---   --   ---xx   flac  0.5011  09 Tuning Medley.flac
    12:19.55      130489004 B   ---   --   ---xx   flac  0.6020  10 Let It Grow.flac
     4:52.61       51652316 B   ---   --   ---xx   flac  0.5957  11 Don't Ease Me In.flac
     0:24.66        4388876 B   ---   --   ---xx   flac  0.4520  12 Tuning.flac
     6:17.70       66667484 B   ---   --   ---xx   flac  0.6163  13 Iko Iko.flac
     7:36.74       80612492 B   ---   --   ---xx   flac  0.6190  14 Playing In The Band.flac
    11:55.64      126276572 B   ---   --   ---xx   flac  0.5836  15 Terrapin Station.flac
    10:05.70      106886684 B   ---   --   ---xx   flac  0.5360  16 Drums.flac
     6:26.25       68149244 B   ---   --   ---xx   flac  0.5029  17 Space.flac
     4:57.73       52562540 B   ---   --   ---xx   flac  0.6123  18 Gimme Some Lovin'.flac
     9:50.40      104170124 B   ---   --   ---xx   flac  0.5477  19 Morning Dew.flac
     8:34.38       90759020 B   ---   --   ---xx   flac  0.5954  20 Throwing Stones.flac
     6:29.11       68645516 B   ---   --   ---xx   flac  0.6203  21 Turn On Your Lovelight.flac
     1:51.74       19754492 B   ---   --   ---xx   flac  0.5224  22 Encore Break.flac
     7:30.65       79532924 B   ---   --   ---xx   flac  0.5743  23 Black Muddy River.flac
   151:40.68     1605400948 B                            0.5813  (23 files)


Show Checksums
ffp
01 Tuning.flac:ad616c547d59245e98cc401afc36e9d0
02 Hell In A Bucket.flac:35cba026f20a98089af7d4892cd98304
03 Sugaree.flac:ecdd91aef1bfa820f1b39431738a9dba
04 Me And My Uncle.flac:8fee3508d63e7311e750c85e627c3183
05 Mexicali Blues.flac:b554f001c92ba124630f800283c1367c
06 West LA Fadeaway.flac:d8e6765d31fab46b152d22f5125959fd
07 Far From Me.flac:a5521aeee53c0fc0a10c69f4f440aabf
08 Row Jimmy.flac:0c492fbc71cf3ddf954b26a0ee0f4557
09 Tuning Medley.flac:b1f7222643ac55a95bc6e78bee12ab38
10 Let It Grow.flac:0803807eb2aaeeaab54c09cc58e8b56b
11 Don't Ease Me In.flac:16f1c6304b1b2c36dc366b169156ff15
12 Tuning.flac:323aabed07cbf34efbde1280154e1e0b
13 Iko Iko.flac:b51590a934e7d6d02f38d7f4694b4f0d
14 Playing In The Band.flac:8ca39114db5cfd25529e72bc7a05d318
15 Terrapin Station.flac:02979abf898bd09e906886a130069d79
16 Drums.flac:f32e30b255687d1dea799837efa0124c
17 Space.flac:584e9944ae200a9f01c0a076adba1d38
18 Gimme Some Lovin'.flac:4f20ddc358191b0f40b2eef7fed06a9d
19 Morning Dew.flac:92051b62974a37bdbe3e0d73b3f6d710
20 Throwing Stones.flac:65da66480df9dbf8031c7bb64c471d21
21 Turn On Your Lovelight.flac:088ba470ad43262c8c5fcea9eaf94baf
22 Encore Break.flac:2f5a9c815dc3bc7f361868d861e0da98
23 Black Muddy River.flac:e6d22c2634153a2a453dc8cb77d6aadc
flac-md5
2fedc1074ae821010b68b34f8cc03e9e *01 Tuning.flac
fc11e9ce30940db71e5336bd6f899e4b *02 Hell In A Bucket.flac
0be943f4da82b1646882502d566f93fe *03 Sugaree.flac
e70bb16440c7ea7ce2c078a17120fdbe *04 Me And My Uncle.flac
8f40f43ae0e348be66c6626eb45b999a *05 Mexicali Blues.flac
77627b771f4e161772ea9e6cb80e6a8d *06 West LA Fadeaway.flac
b1f3800dbe2ed3e58896e1363c843c63 *07 Far From Me.flac
f175e17d83868fd6e62aae9ee675e56f *08 Row Jimmy.flac
f858534728150441f86fdcca12d17791 *09 Tuning Medley.flac
1a6e956eb4a7898ed510ae058385091a *10 Let It Grow.flac
9dff8f73ea84b6280a4edf8815f8183b *11 Don't Ease Me In.flac
478e99638b893fbcced4e16b8fab53da *12 Tuning.flac
259173cb23d5f4f1f232b1674a1977f7 *13 Iko Iko.flac
2394f188662a0963134de5d5a340896c *14 Playing In The Band.flac
361cf8f2450d3fabd54f182e5ec57a91 *15 Terrapin Station.flac
7d9214ff4b9cd15aeea77909d40ecf06 *16 Drums.flac
f5c766694453ed3ff4989e50f36382b2 *17 Space.flac
68f079eb2cc2e68f96179aa3af10b1a4 *18 Gimme Some Lovin'.flac
bb5b2e7167c98eb8fb4fda7509af6dd2 *19 Morning Dew.flac
7ecbda1c97ce0ea32f537183a5b0bde3 *20 Throwing Stones.flac
60be0de55c2aff7c7370a4146713e4a8 *21 Turn On Your Lovelight.flac
7ba17e655cb87747528413d350d5b3dc *22 Encore Break.flac
bc14e7149c8a9a0646cdc07e3133f21a *23 Black Muddy River.flac

Comments
Add Comment
Other Sources (comments)
AUD>DAT>CDR; Schoeps CMC... (0) Master Soundboard Casette >... (1) flac16; Recording... (0) flac16; MAC;... (0) flac24; Recording... (1)
Date User Comment
03/03/2018 [email protected] The Tuning Medley includes Tico Tico and a few other things.