Browse Collections Artists Sources   Search Dates

Add Show    List Management    Help


Grateful Dead 12/09/94
Oakland-Alameda County Coliseum, Oakland, CA
Comments Add Comment    Source Collectors    Add to Collection    Add to Want List    History
Source # 141234 Other Sources
Entered by Matt Vernon
Checksums ffp , flac-md5
Disc Counts 0 / 0
Media Size
Date Circulated
Date Added

03/02/2018
Source Summary flac16/48 Source Info: Schoeps MK4->Reutelhuber P/S-> DAT Transfer Info: DAT (Panasonic SV-3700) -> Coaxial SPDIF-> Marantz PMD 661 MKII (Solid State Recorder)-> SD Card-> Wav-> Flac Level 8-> Tagged (16/48) Transfers by Pete Ebel 
  Archive
Source Information - Download Text | Download Zip
Grateful Dead
Oakland Coliseum - Oakland - CA
December 09, 1994

Source Info:
Schoeps MK4->Reutelhuber P/S-> DAT


Transfer Info:
DAT (Panasonic SV-3700) -> Coaxial SPDIF-> Marantz PMD 661 MKII (Solid State Recorder)->
SD Card-> Wav-> Flac Level 8-> Tagged (16/48)


Transfers by Pete Ebel
January 26, 2018


Notes:
*   Bobby On Acoustic
**  With Sikiru Adepoju
*** Set #2 is Seamless

* Transfer From DAT -> Wav (48k)



Set #1:
01. Tuning
02. Feel's Like A Stranger
03. Stagger Lee
04. The Same Thing
05. Loose Lucy
06. El Paso
07. Broken Arrow
08. Ramble On Rose
09. Music Never Stopped

Set #2:
10. Tuning
11. Scalet Begonias **
12. Fire On The Mountain **
13. Long Way To Go Home
14. Truckin'
15. That Would Be Something
16. He's Gone
17. Drumz **
18. Space
19. Box Of Rain

Encore:
20. Johnny B. Goode




SHNTOOL OUTPUT:
    length     expanded size    cdr  WAVE problems  fmt   ratio  filename
     3:52.368      44614680 B   cxx   --   ---xx   flac  0.3478  01 Tuning.flac
    10:32.547     121449004 B   cxx   --   ---xx   flac  0.4734  02 Feel's Like A Stranger.flac
     8:37.813      99420204 B   cxx   --   ---xx   flac  0.4710  03 Stagger Lee.flac
     7:33.973      87162924 B   cxx   --   ---xx   flac  0.4229  04 The Same Thing.flac
     9:03.773     104404524 B   cxx   --   ---xx   flac  0.4483  05 Loose Lucy.flac
     6:27.720      74442284 B   cxx   --   ---xx   flac  0.4422  06 El Paso.flac
     5:29.493      63262764 B   cxx   --   ---xx   flac  0.4393  07 Broken Arrow.flac
    10:28.293     120632364 B   cxx   --   ---xx   flac  0.4613  08 Ramble On Rose.flac
     9:08.212     105256844 B   cxx   --   ---xx   flac  0.4834  09 Music Never Stopped.flac
     1:28.575      17006392 B   cxx   --   ---xx   flac  0.3257  10 Tuning.flac
    13:09.600     151603244 B   cxx   --   ---xx   flac  0.4728  11 Scarlet Begonias.flac
    18:07.133     208729644 B   cxx   --   ---xx   flac  0.4782  12 Fire On The Mountain.flac
     6:28.480      74588204 B   cxx   --   ---xx   flac  0.4797  13 Way To Go Home.flac
     7:23.707      85191724 B   cxx   --   ---xx   flac  0.5013  14 Truckin'.flac
     4:38.627      53496364 B   cxx   --   ---xx   flac  0.4152  15 That Would Be Something.flac
    14:12.933     163763244 B   cxx   --   ---xx   flac  0.4197  16 He's Gone.flac
    19:45.253     227568684 B   cxx   --   ---xx   flac  0.4645  17 Drumz.flac
    13:36.080     156687404 B   cxx   --   ---xx   flac  0.3508  18 Space.flac
     6:39.907      76782124 B   cxx   --   ---xx   flac  0.4643  19 Box Of Rain.flac
     6:46.320      78013556 B   cxx   --   ---xx   flac  0.4887  20 Johnny B. Goode.flac
   183:30.809    2114076176 B                            0.4502  (20 files)

Show Checksums
ffp
01 Tuning.flac:a482192c665299bb0bdf9d7d1d47f049
02 Feel's Like A Stranger.flac:5c303a408b893d842f963123a961fb9a
03 Stagger Lee.flac:c3fbe4bfc1fd9eed744904820d4a4f51
04 The Same Thing.flac:b4f63e5fbab02287c161b21d26af869f
05 Loose Lucy.flac:b4d1fc9c1a33d5e9281cd87d1e1ab923
06 El Paso.flac:80ffd3fcc3fe58f3f4b16beb2af5ae62
07 Broken Arrow.flac:f79cb275f20f8ffe13a91fcc4638956f
08 Ramble On Rose.flac:869319daa9925083745fbd147c3f0cc8
09 Music Never Stopped.flac:a711709d1cf4f6a5a0579e3dd9ea18f2
10 Tuning.flac:8b63126c6593bc29a9de1661bd884d3d
11 Scarlet Begonias.flac:4f691ff82e4b863d523eb2ca814b38c7
12 Fire On The Mountain.flac:3cb93237755a00f2ddb65aec43387e78
13 Way To Go Home.flac:6f8acc19bbd5e00c241e35cc368ccf84
14 Truckin'.flac:a902a09c2709c0194ab4995c35776137
15 That Would Be Something.flac:54313001a9de73f2d132f87f0fb44fdc
16 He's Gone.flac:867c92f5b36424c8365453a4b97c4191
17 Drumz.flac:be3763e6b24ba1c1805c71a76a29609b
18 Space.flac:22a67fb8438535da8981b5dc893a0364
19 Box Of Rain.flac:1813d139d0485aa12fa8aeea357d6626
20 Johnny B. Goode.flac:bac7cd9e6d4c98e37d8f8d2ff1cd1957
flac-md5
88ed0a78b44590d7cc427a30f139f908 *01 Tuning.flac
3eb509fb07d00af4c17382c92b8c3f12 *02 Feel's Like A Stranger.flac
4b73dc7c6197740a05714f5b27953ce7 *03 Stagger Lee.flac
2742e9b68218c08e55297bbb6f5c1396 *04 The Same Thing.flac
bcd9072b1fb916510e6abcaf1dbf8550 *05 Loose Lucy.flac
9a3ce1eab8014d10c2fa7b34541f7dff *06 El Paso.flac
246096c8827caf04ab5bae4f1c98d0f2 *07 Broken Arrow.flac
5864f2b44f26bb07715f0101366f39c9 *08 Ramble On Rose.flac
7a3aa73c185e3441ea65cb5ad540b283 *09 Music Never Stopped.flac
45ecf6d4edc3ed53217b5279a1ff6f69 *10 Tuning.flac
2058388fbb4e3a9911d97ebab5804aec *11 Scarlet Begonias.flac
c72ad0fd5bbd2d232a852801af113c7d *12 Fire On The Mountain.flac
4f2f196e7ce2cd99a4ecc720082273d4 *13 Way To Go Home.flac
d785473b8fb675d8506a99351c35a3ba *14 Truckin'.flac
7258c90c374c1eef43ef957c48298539 *15 That Would Be Something.flac
f5398fa4caf5f62a69a46d431cd3fe81 *16 He's Gone.flac
9426e420c3fa8fac9b440b20775dbf3f *17 Drumz.flac
6a0604c0892bcbb9f2430d1b31d543d8 *18 Space.flac
1877c42ec7e7cef36880c10398f4ead4 *19 Box Of Rain.flac
21e511fa7f58323f49f0fd024b79051d *20 Johnny B. Goode.flac

Comments
Add Comment
Other Sources (comments)
SBD -> Dat -> CD; Seeded by... (0) flac16; Source: AUD... (0)
Date User Comment