Browse Collections Artists Sources   Search Dates

Add Show    List Management    Help


Grateful Dead 12/11/94
Oakland-Alameda County Coliseum, Oakland, CA
Comments Add Comment    Source Collectors    Add to Collection    Add to Want List    History
Source # 141235 Other Sources
Entered by Matt Vernon
Checksums ffp , flac-md5
Disc Counts 0 / 0
Media Size
Date Circulated
Date Added

03/02/2018
Source Summary flac16/48 Source Info: Neumann KM 140-> Aerco P/S-> Sony D10 Pro II->DAT Transfer Info: DAT (Panasonic SV-3700) -> Coaxial SPDIF-> Marantz PMD 661 MKII (Solid State Recorder)-> SD Card-> Wav-> Flac Level 8-> Tagged (16/48) Transfers by Pete Ebel 
  Archive
Source Information - Download Text | Download Zip
Grateful Dead
Oakland Coliseum - Oakland - CA
December 11, 1994

Source Info:
Neumann KM 140-> Aerco P/S-> Sony D10 Pro II->DAT

Transfer Info:
DAT (Panasonic SV-3700) -> Coaxial SPDIF-> Marantz PMD 661 MKII (Solid State Recorder)->
SD Card-> Wav-> Flac Level 8-> Tagged (16/48)



Transfers by Pete Ebel
January 26, 2018


Notes:
* Set #2 is Seamless

* Transfer From DAT -> Wav (48k)


Set #1:
01. Tuning
02. Help On The Way
03. Slip Knot!
04. Franklin's Tower
05. Little Red Rooster
06. Lazy River Road
07. Black Throated Wind
08. If The Shoe Fits
09. Tennessee Jed
10. Promised Land

Set #2:
11. Tuning
12. Here Comes Sunshine
13. Samson & Deliah
14. Samba In The Rain
15. Eyes Of The World
16. Drumz
17. Space
18. All Along The Watchtower
19. The Days Between
20. Sugar Magnolia

Encore:
21. Liberty




SHNTOOL OUTPUT:
    length     expanded size    cdr  WAVE problems  fmt   ratio  filename
     3:08.747      36239404 B   cxx   --   ---xx   flac  0.3718  01 Tuning.flac
     8:45.027     100805164 B   cxx   --   ---xx   flac  0.4875  02 Help On The Way.flac
     1:30.333      17344044 B   cxx   --   ---xx   flac  0.4919  03 Slip Knot!.flac
    13:14.427     152529964 B   cxx   --   ---xx   flac  0.4966  04 Franklins Tower.flac
     8:48.360     101445164 B   cxx   --   ---xx   flac  0.4825  05 Little Red Rooster.flac
     8:33.880      98665004 B   cxx   --   ---xx   flac  0.4376  06 Lazy River Road.flac
     7:56.773      91540524 B   cxx   --   ---xx   flac  0.4738  07 Black Throated Wind.flac
     7:15.307      83578924 B   cxx   --   ---xx   flac  0.5059  08 If The Shoe Fits.flac
     8:38.213      99497004 B   cxx   --   ---xx   flac  0.4973  09 Tennessee Jed.flac
     4:50.624      55799848 B   cxx   --   ---xx   flac  0.5475  10 Promised Land.flac
     1:58.560      22763564 B   cxx   --   ---xx   flac  0.3254  11 Tuning.flac
     7:34.960      87352364 B   cxx   --   ---xx   flac  0.5059  12 Here Comes Sunshine.flac
    11:11.187     128867884 B   cxx   --   ---xx   flac  0.4847  13 Samson & Delilah.flac
     7:07.627      82104364 B   cxx   --   ---xx   flac  0.4896  14 Samba In The Rain.flac
    14:21.400     165388844 B   cxx   --   ---xx   flac  0.4901  15 Eyes Of The World.flac
    15:15.427     175761964 B   cxx   --   ---xx   flac  0.4372  16 Drumz.flac
    13:25.853     154723884 B   cxx   --   ---xx   flac  0.3457  17 Space.flac
     6:54.600      79603244 B   cxx   --   ---xx   flac  0.4872  18 All Along The Watchtower.flac
    13:20.307     153658924 B   cxx   --   ---xx   flac  0.4465  19 The Days Between.flac
    11:07.893     128235564 B   cxx   --   ---xx   flac  0.5007  20 Sugar Magnolia.flac
     6:01.133      69337584 B   cxx   --   ---xx   flac  0.5036  21 Liberty.flac
   181:00.637    2085243228 B                            0.4685  (21 files)


Show Checksums
ffp
01 Tuning.flac:6b428f9d57b4c18ec2128b8514f0dcca
02 Help On The Way.flac:f3518fe04d72804f1bdbbcf6dcde2d13
03 Slip Knot!.flac:b3ab07f32c427e197b55f34cd3be84b2
04 Franklins Tower.flac:e8cdecad2b56bea16bf5f8e8a6407671
05 Little Red Rooster.flac:4f80a96d3267f6a228d43fdcd9ef29a4
06 Lazy River Road.flac:cafb3b93efd274e18022472b52f4c5ce
07 Black Throated Wind.flac:f3638fb9542fd520818d9fd5e64340ea
08 If The Shoe Fits.flac:2dd39b0aca35abf9137f422449ad5c31
09 Tennessee Jed.flac:a8ffee5a029c49998136c6008e0bcacc
10 Promised Land.flac:114f64fd52e37fed88995e0154cb2900
11 Tuning.flac:c7b0efbb0d8df200cbc80e695fa92a13
12 Here Comes Sunshine.flac:29fda7aeb11fbc2305a8947790efaa31
13 Samson & Delilah.flac:9477ccde2fb0c8e30100837f25c7c696
14 Samba In The Rain.flac:06c83e93dabb06c5cbd9a74383b26e0c
15 Eyes Of The World.flac:23a93729ed8724003620f3347a375bf6
16 Drumz.flac:f1b79dffbfb335f155af996f1b6ddda7
17 Space.flac:32bf7694684f8fbf7f298582b7babe74
18 All Along The Watchtower.flac:809cc0d0a911015472398d79878945f6
19 The Days Between.flac:8d57ff8d3983e7620f88a94aae1ed8fa
20 Sugar Magnolia.flac:ec5f1c6bcff07789518f00ce252128b9
21 Liberty.flac:1d295deb5781ddc0673f5bdc9871838f
flac-md5
35b49f273d6277c7b13d7304fec4722f *01 Tuning.flac
feb2e6bbe494842e0ad7b7013e80d520 *02 Help On The Way.flac
689777af7957d43c2c67170772e49a83 *03 Slip Knot!.flac
1671222198a3443cd6db0f993c2438d3 *04 Franklins Tower.flac
5bafcf6c5ed48923d6f07c82fc19981b *05 Little Red Rooster.flac
a57be1e56524385f88ff2dd4514294f1 *06 Lazy River Road.flac
6e3b81e0229f93a3a285934557ff1b7f *07 Black Throated Wind.flac
4f25cf20f0988616af047a2e029b38ca *08 If The Shoe Fits.flac
f8941f414442f11645a9e27478a9e42c *09 Tennessee Jed.flac
f81d13cff55ca264130c6483817222ce *10 Promised Land.flac
56a272bf3743e67850d2dc9be0697358 *11 Tuning.flac
0d488f95d7388d3fdc2a165802235227 *12 Here Comes Sunshine.flac
2d98b32d9b5b4c619dc921492703c852 *13 Samson & Delilah.flac
ca987a7b2e994e2864a02842547a0f18 *14 Samba In The Rain.flac
3ac1c347022a08e46fd375a2211dec88 *15 Eyes Of The World.flac
970f0cd88bf4de2455a25dcc387a961b *16 Drumz.flac
13d1e3e7b6d7eb3e9cf77b2532a195ff *17 Space.flac
f5bf4e022483772604de4baa9e632a66 *18 All Along The Watchtower.flac
73dc06ceaafd15df8912bbebe2c6e28b *19 The Days Between.flac
6e126c8b686e5f63a74fcde42bbadf5c *20 Sugar Magnolia.flac
307b3a7715d800645bbfe978479d3591 *21 Liberty.flac

Comments
Add Comment
Other Sources (comments)
SBD>?>DAT>CD; Unknown seeder (1) flac16; AUD Unknown... (0)
Date User Comment