Browse Collections Artists Sources   Search Dates

Add Show    List Management    Help


Grateful Dead 12/12/94
Oakland-Alameda County Coliseum, Oakland, CA
Comments Add Comment    Source Collectors    Add to Collection    Add to Want List    History
Source # 141236 Other Sources
Entered by Matt Vernon
Checksums ffp , flac-md5
Disc Counts 0 / 0
Media Size
Date Circulated
Date Added

03/02/2018
Source Summary flac16/44.1 Source Info: Schoeps MK4->Reutelhuber P/S-> DAT Transfer Info: Dat Tape (Panasonic SV-3700)-> Marantz CDR-615-> CD (Late 90's) Extract Wav-> Flac Level 8-> Tagged (16/44.1) Transfers by Pete Ebel 
  Archive
Source Information - Download Text | Download Zip
Grateful Dead
Oakland Coliseum - Oakland - CA
December 12, 1994

Source Info:
Schoeps MK4->Reutelhuber P/S-> DAT

Transfer Info:
Dat Tape (Panasonic SV-3700)-> Marantz CDR-615-> CD (Late 90's)
Extract Wav-> Flac Level 8-> Tagged (16/44.1)


Transfers by Pete Ebel
February 2, 2018


Notes:
* Set #1 Sounds to be same source as Source# 10933. The 7 Seconds of Digi Noise from Althea was
  Removed and replace with the same section of song from the next Althea from 12-18-1994.
  Fades in and out for a much better listening experience. (From 7:06->7:14)

* Taper's get Popped at the 38:26 during Easy Answers (2:20 of Song).
  It was patched from (2:20 of Easy Answers till end of Set #1.
  The Patch source is not in the archive. This is different than Source #10933. It cuts in after Candyman.

* Set #2 sounds different. I had a sticky tab in DAT case with a note KM140.
  So Maybe the patch from the Neumann's or the source is KM140 until bust, Schoeps MK4 till end of show...
  I sure someone knows the answer...Easy Answers!



@ Bobby On Acoustic
** With Sikiru Adepoju
Set #2 is Seamless


Set #1:
01. Jack Straw
02. Althea
03. Me & My Uncle @
04. Maggie's Farm @
05. Candyman
06. Easy Answers
07. Bird Song

Set #2:
08. Tuning
09. Iko-Iko
10. Childhood's End
11. Playing In The Band
12. Uncle John's Band
13. Terrapin Station
14. Drumz **
15. Space
16. Standing On The Moon
17. Throwing Stones
18. Not Fade Away

Encore:
19. Brokedown Palace




SHNTOOL OUTPUT:
    length     expanded size    cdr  WAVE problems  fmt   ratio  filename
     6:29.55       68749004 B   ---   --   ---xx   flac  0.5247  01 Jack Straw.flac
    11:45.55      124491404 B   ---   --   ---xx   flac  0.4722  02 Althea.flac
     2:47.57       29592908 B   ---   --   ---xx   flac  0.5342  03 Me & My Uncle.flac
     8:12.35       86871164 B   ---   --   ---xx   flac  0.5133  04 Maggie's Farm.flac
     6:50.00       72324044 B   ---   --   ---xx   flac  0.4785  05 Candyman.flac
     7:04.34       74873612 B   ---   --   ---xx   flac  0.5168  06 Easy Answers.flac
    16:33.00      175165244 B   ---   --   ---xx   flac  0.4898  07 Bird Song.flac
     1:49.21       19277036 B   ---   --   ---xx   flac  0.4078  08 Tuning.flac
     7:56.16       84004076 B   ---   --   ---xx   flac  0.5379  09 Iko-Iko.flac
     4:19.63       45835820 B   ---   --   ---xx   flac  0.5204  10 Childhood's End.flac
    10:52.39      115104572 B   ---   --   ---xx   flac  0.5358  11 Playing In The Band.flac
    11:48.13      124921820 B   ---   --   ---xx   flac  0.5163  12 Uncle John's Band.flac
    15:05.29      159710252 B   ---   --   ---xx   flac  0.5193  13 Terrapin Station.flac
    17:00.23      179982140 B   ---   --   ---xx   flac  0.4756  14 Drumz.flac
     6:49.68       72307580 B   ---   --   ---xx   flac  0.3829  15 Space.flac
     9:01.63       95580620 B   ---   --   ---xx   flac  0.5062  16 Standing On The Moon.flac
     9:39.01      102137996 B   ---   --   ---xx   flac  0.5418  17 Throwing Stones.flac
     8:47.72       93132188 B   ---   --   ---xx   flac  0.5216  18 Not Fade Away.flac
     5:43.41       60601676 B   ---   --   ---xx   flac  0.4833  19 Brokedown Palace.flac
   168:37.10     1784663156 B                            0.5016  (19 files)


Show Checksums
ffp
01 Jack Straw.flac:5c9c59c5d6aadd176496abe8321ef3d6
02 Althea.flac:ec7be2a3519f446b2c019f4d7e3e5108
03 Me & My Uncle.flac:6642dc0d053772a4ff40953c0e06d172
04 Maggie's Farm.flac:5a013b9a802152998f951c5a3d07f791
05 Candyman.flac:215313ba832d3ed7cddc3adeee5f74ed
06 Easy Answers.flac:2fc664f79d42d5582492daf37c27b958
07 Bird Song.flac:97b9030d4748a5cb1934d350d25f7718
08 Tuning.flac:37fbd5461e14db4cd4be36d97193bd87
09 Iko-Iko.flac:bab35887c35c39de4691babf9d99c20b
10 Childhood's End.flac:e9eb43c0b2112362c73e8e3da5bbc99c
11 Playing In The Band.flac:e3f5f70f321f06ef723514af38ba0cf4
12 Uncle John's Band.flac:49737c90c0f276ed22fc8c5f6c23e6a8
13 Terrapin Station.flac:a6de011f6834be137fefb3ee4ddfb83e
14 Drumz.flac:fcb146ffada92a801624ef57a0d188a7
15 Space.flac:85e69445462af025599710051bed5380
16 Standing On The Moon.flac:2cbbd2387d7d829421f3269d03e26849
17 Throwing Stones.flac:2f07ea53e0dddda3feece2a2ce2e4f47
18 Not Fade Away.flac:dbc1e81554dfdf5dd4aceb12babae2e6
19 Brokedown Palace.flac:f612bcc8668eda72202c47f05c8214f6
flac-md5
438ff42f2a2a0eabd9e474585747cd62 *01 Jack Straw.flac
9784616f475e6847b02d26c5c72ba203 *02 Althea.flac
5a5f161335168f9ea4f96d2d7aaa17a2 *03 Me & My Uncle.flac
1a493848bdb029e8d77b7e1841bb40af *04 Maggie's Farm.flac
df09b13b9f8dc40e9ea9fbe4b63ea287 *05 Candyman.flac
1f24e53a1d6751c5846a1e0ea544d776 *06 Easy Answers.flac
556b2e00baab6e81c4d577fc2058671f *07 Bird Song.flac
81ffd4e5e71395a3b3f3d1548715069a *08 Tuning.flac
bf7363bab945681dad4567600663784c *09 Iko-Iko.flac
22299f81a71df7e178c83d9582add3d4 *10 Childhood's End.flac
eea7aaf6fb9d444830ed132229ae826b *11 Playing In The Band.flac
30dbae681637624bb0aa0c25a48d2612 *12 Uncle John's Band.flac
d94432cb29e6c535aabcd0f2760ae783 *13 Terrapin Station.flac
1e8ba39ccdf50386797a2413ba914ed5 *14 Drumz.flac
91c04ebfb261e07bff684d393fcecda5 *15 Space.flac
890041f816a917e3e2d2a4d85eb04265 *16 Standing On The Moon.flac
3e618f4b37a0bb45f8b1e9da95c059dd *17 Throwing Stones.flac
3fb99e32118b54c83ec7f6c7812bce05 *18 Not Fade Away.flac
4271c900ab647ed2aaf611ea83b24d62 *19 Brokedown Palace.flac

Comments
Add Comment
Other Sources (comments)
AUD(Schoeps MK4?s)>DAT>CD;... (0)
Date User Comment