Browse Collections Artists Sources   Search Dates

Add Show    List Management    Help


Grateful Dead 12/15/94
Sports Arena, Los Angeles, CA
Comments Add Comment    Source Collectors    Add to Collection    Add to Want List    History
Source # 141237 Other Sources
Entered by Matt Vernon
Checksums ffp , flac-md5
Disc Counts 0 / 0
Media Size
Date Circulated
Date Added

03/02/2018
Source Summary flac16 44.1khz Source Info: FOB Schoeps MK 4-> Reutelhuber P/S-> DAT. Transfer Info: Dat Tape (Panasonic SV-3700)-> Marantz CDR-615-> CD (Late 90's) Extract Wav-> Flac Level 8-> Tagged (16/44.1). Transfers by Pete Ebel. 
  Archive
Source Information - Download Text | Download Zip
Grateful Dead
L.A. Sports Arena - Los Angeles - CA
December 15, 1994

Source Info:
FOB Schoeps MK 4-> Reutelhuber P/S-> DAT

Transfer Info:
Dat Tape (Panasonic SV-3700)-> Marantz CDR-615-> CD (Late 90's)
Extract Wav-> Flac Level 8-> Tagged (16/44.1)


Transfers by Pete Ebel
Late 90's and February 1, 2018


Notes:
Set #2 is Seamless



Set #1:
01. Shakedown Street
02. Wang Dang Doodle
03. Lazy River Road
04. Me & My Uncle
05. Mexicali Blues
06. Row Jimmy
07. Promised Land

Set #2:
08. Foolish Heart
09. Long Way To Go Home
10. Corrina
11. Uncle John's Band
12. Drumz
13. Space
14. The Last Time
15. Morning Dew

Encore:
16. Liberty




SHNTOOL OUTPUT:
    length     expanded size    cdr  WAVE problems  fmt   ratio  filename
    17:36.42      186377228 B   ---   --   ---xx   flac  0.5340  01 Shakedown Street.flac
     8:10.16       86473676 B   ---   --   ---xx   flac  0.4968  02 Wang Dang Doodle.flac
     7:43.15       81708524 B   ---   --   ---xx   flac  0.4874  03 Lazy River Road.flac
     2:49.74       29985692 B   ---   --   ---xx   flac  0.5313  04 Me & My Uncle.flac
     8:39.02       91556348 B   ---   --   ---xx   flac  0.5030  05 Mexicali Blues.flac
    10:22.73      109892540 B   ---   --   ---xx   flac  0.5089  06 Row Jimmy.flac
     5:04.51       53745596 B   ---   --   ---xx   flac  0.5430  07 Promised Land.flac
    13:30.62      143029868 B   ---   --   ---xx   flac  0.5050  08 Foolish Heart.flac
     6:33.36       69409916 B   ---   --   ---xx   flac  0.5271  09 Long Way To Go Home.flac
    11:51.59      125559212 B   ---   --   ---xx   flac  0.5268  10 Corrina.flac
    13:19.62      141089468 B   ---   --   ---xx   flac  0.4863  11 Uncle John's Band.flac
    12:17.08      130025660 B   ---   --   ---xx   flac  0.4189  12 Drumz.flac
    15:13.22      161104988 B   ---   --   ---xx   flac  0.3680  13 Space.flac
     5:45.58       60994460 B   ---   --   ---xx   flac  0.5120  14 The Last Time.flac
    15:57.46      168923036 B   ---   --   ---xx   flac  0.4566  15 Morning Dew.flac
     6:55.03       73213100 B   ---   --   ---xx   flac  0.4823  16 Liberty.flac
   161:51.29     1713089312 B                            0.4847  (16 files)


Show Checksums
ffp
01 Shakedown Street.flac:cf178150f2222f7f20a525f2f22d3fce
02 Wang Dang Doodle.flac:c626b66b3657e9fdc04cbed8a9f5c823
03 Lazy River Road.flac:b2af17500d5a3eea0c77967dc58e9b55
04 Me & My Uncle.flac:25b9e15d87ab03d65599aa372ed19f8a
05 Mexicali Blues.flac:1cc14c101953c4d73e65d14e0d0e9c05
06 Row Jimmy.flac:10820f87862096de25a8eeb7b2a5f166
07 Promised Land.flac:a430e70874735a04c8cf467bd4b28e22
08 Foolish Heart.flac:9e7ae55ae5c882d5a2ad5b31da2cdda5
09 Long Way To Go Home.flac:766a11698ea363918172e35bdf63e9fd
10 Corrina.flac:2c8244c555943475abd30f0a5822ff8b
11 Uncle John's Band.flac:4dc7a1f97591e647daed89bc9719e35e
12 Drumz.flac:60f0bb4f7f8693a5c84ad9f5b074de19
13 Space.flac:2e9061cf3908bc3198bfaf0aeac1b699
14 The Last Time.flac:719d63ac51e1d6850f1dfacfbfdd0209
15 Morning Dew.flac:14488d7f61f06d1eae94d7ec172da47e
16 Liberty.flac:770e62de7fd7c14443629417ff4ae677
flac-md5
8ff9d20a5e27e72b5a952ff30ec8a4db *01 Shakedown Street.flac
9dd9bf7318aa64557bba288dd5ea0452 *02 Wang Dang Doodle.flac
c3823ba8dae091787adbab357c19867f *03 Lazy River Road.flac
80713937497dac9e4c56ef381f2ad60b *04 Me & My Uncle.flac
2d3298b80f95bdd56db06b587610eae2 *05 Mexicali Blues.flac
acc2daba6a6c36d6d524b01b1d7281a9 *06 Row Jimmy.flac
1300686cf47e3065ca1e931fddd96bf7 *07 Promised Land.flac
c3a9a32bbe19bf950216fda7e095fc1d *08 Foolish Heart.flac
65ed0801dd46b5635c7f35a2f564d7df *09 Long Way To Go Home.flac
2a0cc96e433df4a12828aa62e3829d95 *10 Corrina.flac
5736b4476352474ee8b540b656688eea *11 Uncle John's Band.flac
643cbe1ef2a05a5a5f9937a296f5ea38 *12 Drumz.flac
d7eec3e87213ae2dbdcf95027c1736e6 *13 Space.flac
834ad3190e6ce89a1c5630160af81d61 *14 The Last Time.flac
a1340f6106fb94e52fde22600c6e68c2 *15 Morning Dew.flac
dbf38fb3e409ae18c8e56e562a814834 *16 Liberty.flac

Comments
Add Comment
Other Sources (comments)
AKG 460B + CK8 > D3 @48k;... (2) shntool fix of Jon Seff's... (0)
Date User Comment