Browse Collections Artists Sources   Search Dates

Add Show    List Management    Help


Grateful Dead 12/16/94
Sports Arena, Los Angeles, CA
Comments Add Comment    Source Collectors    Add to Collection    Add to Want List    History
Source # 141245 Other Sources
Entered by Matt Vernon
Checksums ffp , flac-md5
Disc Counts 0 / 0
Media Size
Date Circulated
Date Added

03/02/2018
Source Summary flac16/44.1 Source Info: FOB Schoeps MK 4-> Reutelhuber P/S-> DAT. Transfer Info: Dat Tape (Panasonic SV-3700)-> Marantz CDR-615-> CD (Late 90's) Extract Wav-> Flac Level 8-> Tagged (16/44.1). Transfers by Pete Ebel. 
  Archive
Source Information - Download Text | Download Zip
Grateful Dead
L.A. Sports Arena - Los Angeles - CA
December 16, 1994

Source Info:
FOB Schoeps MK 4-> Reutelhuber P/S-> DAT

Transfer Info:
Dat Tape (Panasonic SV-3700)-> Marantz CDR-615-> CD (Late 90's)
Extract Wav-> Flac Level 8-> Tagged (16/44.1)


Transfers by Pete Ebel
Late 90's and February 3, 2018


Notes:
* This is the same source as #138603, but is from a different transfer from 20 years ago.
My DAT had a second source for Eyes of the World and Samba in the Rain. I did a Re-Edit
and just used the Second source to patch 3:46 at the start of Samba In The Rain (20:12->23:58)
On the circulated source there is very loud talking from a gentleman whose view being
Blocked by the tapers.

* Show With Branford Marsalis

* Set #2 is Seamless



Set #1:
01. Tuning
02. Hell In A Bucket
03. Cold Rain & Snow
04. Minglewood Blues
05. So Many Roads
06. Childhoods End
07. Enterinty
08. Don't Ease Me In

Set #2:
09. Eyes Of The World
10. Samba In The Rain
11. Estimated Prophet
12. He's Gone
13. Drumz
14. Space
15. The Other One
16. Wharf Rat
17. Good Lovin'

Encore:
18. Lucy In The Sky With Diamonds




SHNTOOL OUTPUT:
    length     expanded size    cdr  WAVE problems  fmt   ratio  filename
     2:22.63       25197020 B   ---   --   ---xx   flac  0.4377  01 Tuning.flac
     8:00.35       84754364 B   ---   --   ---xx   flac  0.5406  02 Hell In A Bucket.flac
     6:32.35       69231164 B   ---   --   ---xx   flac  0.5321  03 Cold Rain & Snow.flac
     9:10.06       97034156 B   ---   --   ---xx   flac  0.5470  04 Minglewood Blues.flac
     7:54.25       83672444 B   ---   --   ---xx   flac  0.5134  05 So Many Roads.flac
     5:00.55       53049404 B   ---   --   ---xx   flac  0.5003  06 Childhoods End.flac
    12:05.53      128014700 B   ---   --   ---xx   flac  0.5205  07 Enternity.flac
     4:03.06       42879356 B   ---   --   ---xx   flac  0.5319  08 Don't Ease Me In.flac
    20:28.22      216670988 B   ---   --   ---xx   flac  0.4967  09 Eyes Of The World.flac
     9:44.67      103175228 B   ---   --   ---xx   flac  0.5243  10 Samba In The Rain.flac
    18:12.74      192802892 B   ---   --   ---xx   flac  0.5264  11 Estimated Prohet.flac
    13:33.41      143509676 B   ---   --   ---xx   flac  0.4745  12 He's Gone.flac
    12:58.54      137366252 B   ---   --   ---xx   flac  0.4701  13 Drumz.flac
    11:06.42      117581228 B   ---   --   ---xx   flac  0.4000  14 Space.flac
     6:33.42       69424028 B   ---   --   ---xx   flac  0.5224  15 The Other One.flac
    10:14.65      108462524 B   ---   --   ---xx   flac  0.4975  16 Wharf Rat.flac
    12:01.37      127271468 B   ---   --   ---xx   flac  0.5385  17 Good Lovin'.flac
     4:10.61       44243516 B   ---   --   ---xx   flac  0.5259  18 Lucy In The Sky With Diamonds.flac
   174:15.33     1844340408 B                            0.5046  (18 files)


Show Checksums
ffp
01 Tuning.flac:6dda8fd1178fd2cec060a8d9f631721e
02 Hell In A Bucket.flac:eb9bfde10b3fcc8ff054cd657de225f7
03 Cold Rain & Snow.flac:e7e40599cfab02cbc131836494668297
04 Minglewood Blues.flac:699d4b0a76174fe8f1e1b1bee25a255a
05 So Many Roads.flac:97ec228fc5dee5802a734d47ebd40f71
06 Childhoods End.flac:ab1a30d37595a6be909b703428eff0e0
07 Enternity.flac:d47df099ced5280bcc224cbf5565255f
08 Don't Ease Me In.flac:699c27e0469fd7665714421ff8e3878d
09 Eyes Of The World.flac:546eb3eecc3ccd1a00c3b6c2b4038499
10 Samba In The Rain.flac:c9fc2dc2c5d7240262b4cd7aca86a1d7
11 Estimated Prohet.flac:494a892deab3d153d3239438dbe0c406
12 He's Gone.flac:6cbc85242ca7330cc0cf02d60c557936
13 Drumz.flac:ceabe504cda7e22fdd766f95b515f3aa
14 Space.flac:902658796d0d54a6aed7548915ea0a58
15 The Other One.flac:4c17a73e0fe4ba886c31e43ad48e8d78
16 Wharf Rat.flac:671372d339aba5f1924b356418f3d317
17 Good Lovin'.flac:ff6bb9e64736cfb1fe221b820c6f1d3d
18 Lucy In The Sky With Diamonds.flac:bceb4d8f4a4f3bb9d6bf68435fc86b3c
flac-md5
3bda429edf1899cfb3194e5ad091f812 *01 Tuning.flac
b963e4cf67e4074c9ffd82b5d4d25b3e *02 Hell In A Bucket.flac
cb122954a9db6c33e0d7ca0bc3b5d429 *03 Cold Rain & Snow.flac
36d09f6201bab92f81ac4cafeacec9d1 *04 Minglewood Blues.flac
90b5f7293268f382f693633447a653a1 *05 So Many Roads.flac
08e6e1a60d754b6c949a1e8b78d39fe4 *06 Childhoods End.flac
79c34a1a0b6e16c257ac0a3c3c2821b4 *07 Enternity.flac
03452b64106e6ebaa951295915cbdee9 *08 Don't Ease Me In.flac
e8b59a391068eef5f4bf871335e35581 *09 Eyes Of The World.flac
77abd9468374827d7275239ae21c0f09 *10 Samba In The Rain.flac
2fe31e51db91943bd5068dbb8ebf7455 *11 Estimated Prohet.flac
f5b968c57505b28bf19bfb05011af028 *12 He's Gone.flac
e37796550667662ffa90a8cf04eb022b *13 Drumz.flac
1fec402333fca4794c0482518c500a8d *14 Space.flac
1efaffd6800ce6af4770383e8766c00b *15 The Other One.flac
d32d4c2e75846599bb495bdf01bc7ebd *16 Wharf Rat.flac
750a2bfd07dd60fc4ee8d0e9fd6c80b8 *17 Good Lovin'.flac
79d152550ec2c1f8edd1506dd973e054 *18 Lucy In The Sky With Diamonds.flac

Comments
Add Comment
Other Sources (comments)
AUD(Nak 300 Shotguns)>Aiwa... (0) flac16; Set 2 DSBD >... (0) flac16; matrix of... (0) flac16/48kHz; Taper... (0)
Date User Comment