Browse Collections Artists Sources   Search Dates

Add Show    List Management    Help


Grateful Dead 12/18/94
Sports Arena, Los Angeles, CA
Comments Add Comment    Source Collectors    Add to Collection    Add to Want List    History
Source # 141246 Other Sources
Entered by Matt Vernon
Checksums ffp , flac-md5
Disc Counts 0 / 0
Media Size
Date Circulated
Date Added

03/02/2018
Source Summary flac16/48 Source Info: FOB Schoeps CMC 5 MK 4-> DAT. Transfer Info: DAT Tape (Panasonic SV-3700) -> Coxial SPDIF-> Marantz PMD 661 MKII (Solid State Recorder)-> SD Card-> Wav-> Flac Level 8-> Tagged (16/48). Transfers by Pete Ebel. 
  Archive
Source Information - Download Text | Download Zip
Grateful Dead
L.A. Sports Arena - Los Angeles - CA
December 18, 1994

Source Info:
FOB Schoeps CMC 5 MK 4-> DAT

Transfer Info:
DAT Tape (Panasonic SV-3700) -> Coxial SPDIF-> Marantz PMD 661 MKII (Solid State Recorder)->
SD Card-> Wav-> Flac Level 8-> Tagged (16/48)


Transfers by Pete Ebel
February 24, 2018

Notes:
* Set #2 is Seamless

* Transfer From DAT -> Wav (48k)



Set #1:
01. Tuning
02. Touch Of Grey
03. Greatest Story Ever Told
04. Althea
05. Walking Blues
06. Tom Thumb Blues
07. El Paso
08. Loose Lucy
09. Let It Grow

Set #2:
10. Tuning
11. Victim Or the Crime
12. Crazy Fingers
13. Playing In The Band
14. Terrapin Station
15. Drumz
16. Space
17. The Last Time
18. Attics Of My Life
19. Johnny B. Goode

Encore:
20. Baby Blue



SHNTOOL OUTPUT:
    length     expanded size    cdr  WAVE problems  fmt   ratio  filename
     2:06.613      24309804 B   cxx   --   ---xx   flac  0.4085  01 Tuning.flac
     6:37.040      76231724 B   cxx   --   ---xx   flac  0.5234  02 Touch Of Grey.flac
     4:48.120      55319084 B   cxx   --   ---xx   flac  0.5123  03 Greatest Story Ever Told.flac
     8:10.880      94249004 B   cxx   --   ---xx   flac  0.4960  04 Althea.flac
     5:49.200      67046444 B   cxx   --   ---xx   flac  0.5018  05 Walking Blues.flac
     5:51.227      67435564 B   cxx   --   ---xx   flac  0.4981  06 Tom Thumb Blues.flac
     5:59.653      69053484 B   cxx   --   ---xx   flac  0.5010  07 El Paso.flac
     9:13.507     106273324 B   cxx   --   ---xx   flac  0.4937  08 Loose Lucy.flac
    12:09.301     140025740 B   cxx   --   ---xx   flac  0.5051  09 Let It Grow.flac
     2:38.187      30371884 B   cxx   --   ---xx   flac  0.3988  10 Tuning.flac
     8:56.787     103063084 B   cxx   --   ---xx   flac  0.5093  11 Victim Or The Crime.flac
     8:53.107     102356524 B   cxx   --   ---xx   flac  0.4873  12 Crazy Fingers.flac
     7:50.880      90409004 B   cxx   --   ---xx   flac  0.5024  13 Playing In The Band.flac
    13:21.000     153792044 B   cxx   --   ---xx   flac  0.5079  14 Terrapin Station.flac
    11:38.787     134167084 B   cxx   --   ---xx   flac  0.4826  15 Drumz.flac
     7:58.360      91845164 B   cxx   --   ---xx   flac  0.3838  16 Space.flac
     7:22.960      85048364 B   cxx   --   ---xx   flac  0.5200  17 The Last Time.flac
     4:21.920      50288684 B   cxx   --   ---xx   flac  0.4831  18 Attics Of My Life.flac
     5:54.920      68144684 B   cxx   --   ---xx   flac  0.5532  19 Johnny B. Goode.flac
     7:11.416      82831904 B   cxx   --   ---xx   flac  0.4864  20 Baby Blue.flac
   146:53.863    1692262596 B                            0.4931  (20 files)



Show Checksums
ffp
01 Tuning.flac:0cc49d0ba7345f3f18ae61204193fda0
02 Touch Of Grey.flac:3106302cf468d4068988d96debd63d2b
03 Greatest Story Ever Told.flac:f8919f036706658d389cbd82667deff9
04 Althea.flac:357964311072597b3fc2f23889dd943d
05 Walking Blues.flac:dae5fc97ea9434d8af4df6de0d2ad537
06 Tom Thumb Blues.flac:64afa486f73a0f880fea4c9d96972e3a
07 El Paso.flac:7bf35a48726534d9fc779941678a0e56
08 Loose Lucy.flac:e0e5f230a79d9a168c3065da3cb32b72
09 Let It Grow.flac:4847ce46e375203f9b7edaeab9b577eb
10 Tuning.flac:2a1739b4be3d37db545b17411315fcfc
11 Victim Or The Crime.flac:ca1cd49295bd4b68337f949b5a3b0f0e
12 Crazy Fingers.flac:26b6544b86a022eb400d0e454335eaa6
13 Playing In The Band.flac:85e4bcb7f6547fbd259c9c74c78afa1d
14 Terrapin Station.flac:f8c519d28c20556491077d2f10d5afeb
15 Drumz.flac:217faba43c325bac32a47119f01cb3dc
16 Space.flac:bfc2c73fe02be2f6bd4a97d688b5ae45
17 The Last Time.flac:ef5cd389f6f1d2765ddb64081173a94e
18 Attics Of My Life.flac:21725a51ea822db51ca6d48087758f23
19 Johnny B. Goode.flac:7ab2d90c6d88eace0c95a65807664565
20 Baby Blue.flac:056c9c07fd039bcfe773fcff7aef83a3
flac-md5
18268befe512bfa22e303d30b6e91dd6 *01 Tuning.flac
27466649dd84a6a4867d9d6149ca4d38 *02 Touch Of Grey.flac
94971fb001fe9de878a12d5deea6ecae *03 Greatest Story Ever Told.flac
faebda2f59db630ebefcd4d7c36d3bc2 *04 Althea.flac
f09530e7644766d8cdf9170b367438b9 *05 Walking Blues.flac
fef090b861dbfed361abc7123b05e2fa *06 Tom Thumb Blues.flac
a7a2b6048f4e089c9dfbd42a679fe72f *07 El Paso.flac
baacfcbbe4353d94d515087b73c9e7cb *08 Loose Lucy.flac
27ed7eec6eb8dfb8ae32acc7edecdaef *09 Let It Grow.flac
ed68c2b4ebfef37c0727c9cef6a1a8c3 *10 Tuning.flac
9bde2bff5784f679ea304200a7e63db7 *11 Victim Or The Crime.flac
6627fd87bcb8a74101e99c35698ff661 *12 Crazy Fingers.flac
4bc36d753962be2b639baa80f6ebdea6 *13 Playing In The Band.flac
eda715e68ba5957d086687c637ac908f *14 Terrapin Station.flac
8d1c75fe84ecd1cb2cf568177dadf3b2 *15 Drumz.flac
d5b3c1e7af0350cec546f66e6049dbf9 *16 Space.flac
527073af1c2670e3859d1239b51a3e32 *17 The Last Time.flac
bb8822e917e49e0ca54c6ecc939f66d6 *18 Attics Of My Life.flac
de07d77ee04a2c5f924075c9e9febe22 *19 Johnny B. Goode.flac
f831bc1bbb6af1bce1a881782a5bb08c *20 Baby Blue.flac

Comments
Add Comment
Other Sources (comments)
AKG 460B + CK8 > D3 @48k;... (1) Shntool fix (by Chris L) of... (0) flac16/44.1 Source... (0)
Date User Comment