Browse Collections Artists Sources   Search Dates

Add Show    List Management    Help


Grateful Dead 12/18/94
Sports Arena, Los Angeles, CA
Comments Add Comment    Source Collectors    Add to Collection    Add to Want List    History
Source # 141249 Other Sources
Entered by Matt Vernon
Checksums ffp , flac-md5
Disc Counts 0 / 0
Media Size
Date Circulated
Date Added

03/03/2018
Source Summary flac16/44.1 Source Info: FOB Neumann KM 140-> Aerco P/S-> Casio DTR 100-> DAT. Transfer Info: Dat Tape (Panasonic SV-3700)-> Marantz CDR-615-> CD (Late 90's) Extract Wav-> Flac Level 8-> Tagged (16/44.1). Transfers by Pete Ebel. 
  Archive
Source Information - Download Text | Download Zip
Grateful Dead
L.A. Sports Arena - Los Angeles - CA
December 18, 1994

Source Info:
FOB Neumann KM 140-> Aerco P/S-> Casio DTR 100-> DAT

Transfer Info:
Dat Tape (Panasonic SV-3700)-> Marantz CDR-615-> CD (Late 90's)
Extract Wav-> Flac Level 8-> Tagged (16/44.1)


Transfers by Pete Ebel
Late 90's and February 1, 2018


Notes:
Set #2 is Seamless



Set #1:
01. Touch Of Grey
02. Greatest Story Ever Told
03. Althea
04. Walking Blues
05. Tom Thumb Blues
06. El Paso
07. Loose Lucy
08. Let It Grow

Set #2:
09. Victim Or the Crime
10. Crazy Fingers
11. Playing In The Band
12. Terrapin Station
13. Drumz
14. Space
15. The Last Time
16. Attics Of My Life
17. Johnny B. Goode

Encore:
18. Baby Blue



SHNTOOL OUTPUT:
    length     expanded size    cdr  WAVE problems  fmt   ratio  filename
     7:39.45       81073484 B   ---   --   ---xx   flac  0.5481  01 Touch Of Grey.flac
     4:53.52       51807548 B   ---   --   ---xx   flac  0.5466  02 Greatest Story Ever Told.flac
     8:10.02       86440748 B   ---   --   ---xx   flac  0.5240  03 Althea.flac
     5:44.00       60681644 B   ---   --   ---xx   flac  0.5287  04 Walking Blues.flac
     5:51.10       61939964 B   ---   --   ---xx   flac  0.5267  05 Tom Thumb Blues.flac
     5:58.04       63160652 B   ---   --   ---xx   flac  0.5320  06 El Paso.flac
     9:15.46       98010236 B   ---   --   ---xx   flac  0.5213  07 Loose Lucy.flac
    12:23.10      131088764 B   ---   --   ---xx   flac  0.5274  08 Let It Grow.flac
     9:23.59       99452012 B   ---   --   ---xx   flac  0.5030  09 Victim Or The Crime.flac
     9:03.20       95832284 B   ---   --   ---xx   flac  0.4902  10 Crazy Fingers.flac
     7:16.30       76981004 B   ---   --   ---xx   flac  0.5075  11 Playing In The Band.flac
    14:29.59      153430412 B   ---   --   ---xx   flac  0.4992  12 Terrapin Station.flac
     9:52.03      104435900 B   ---   --   ---xx   flac  0.4822  13 Drumz.flac
     9:10.18       97062380 B   ---   --   ---xx   flac  0.3719  14 Space.flac
     7:24.06       78335756 B   ---   --   ---xx   flac  0.5023  15 The Last Time.flac
     4:21.42       46139228 B   ---   --   ---xx   flac  0.4652  16 Attics Of My Life.flac
     5:54.58       62582060 B   ---   --   ---xx   flac  0.5292  17 Johnny B. Goode.flac
     7:13.26       76442396 B   ---   --   ---xx   flac  0.4562  18 Baby Blue.flac
   144:04.40     1524896472 B                            0.5013  (18 files)



Show Checksums
ffp
01 Touch Of Grey.flac:cf76cfdf993f5e8b2309ea2b3eba0059
02 Greatest Story Ever Told.flac:2a1ae71b827bfeb19a0c40e8dea9248b
03 Althea.flac:01e77c8d7c610590959ef688cf93054e
04 Walking Blues.flac:3d460437aaf94747f1cc32fa7eb36806
05 Tom Thumb Blues.flac:ea0725ff5170b028c559208cdd88c3a5
06 El Paso.flac:3bf66f8d3bb759c754d5d538ebbce49e
07 Loose Lucy.flac:4a30e333c91403826a2775e19d5fc44f
08 Let It Grow.flac:049b6e0210b25c6985b23611a8178380
09 Victim Or The Crime.flac:d121e389975939140043220a3c065164
10 Crazy Fingers.flac:adb3df9339ec631e2722e91c450536c2
11 Playing In The Band.flac:3d9ccdbabf257c6a9f50538a8d810c56
12 Terrapin Station.flac:c9e697d2dc266b2d7a2526f880ceec96
13 Drumz.flac:4e1844a116c2bc528b216c9d7e9ef297
14 Space.flac:d299f2572ed862f8718f647b375ee7d0
15 The Last Time.flac:06773743d35971ca41e37dc89e8b0fc2
16 Attics Of My Life.flac:60ecfdceeefc701f537a067de2b42b4e
17 Johnny B. Goode.flac:4686f99828db43f9ea6fda8745511273
18 Baby Blue.flac:8b1a7bffc9546733606a320e26949dc4
flac-md5
bb6a8b8c7992132f90405a9efa0c606b *01 Touch Of Grey.flac
e0fb67ddd82b2fc6e6c9353351523f5f *02 Greatest Story Ever Told.flac
378f3be88003d5a8f30bd5e94e5702c7 *03 Althea.flac
50d8c61d365d00da3cb0bfa4ff386d66 *04 Walking Blues.flac
77b0f7c82ecb9875a7f7e0ebd2740f40 *05 Tom Thumb Blues.flac
f3d2a2a72d4054c4d4aab0907bb7af1e *06 El Paso.flac
cde282397585381472efdffebc5a9e43 *07 Loose Lucy.flac
ade2b3d8c675da2637f76bdafedf01dd *08 Let It Grow.flac
9dde14f6cbeea178ae615c009f91d7de *09 Victim Or The Crime.flac
7384357f230aa0c08c844a3af66b8864 *10 Crazy Fingers.flac
b5ca923ee5d55e33c137b9c96a20d934 *11 Playing In The Band.flac
576ac8d989cd519d9add2c462c245ca8 *12 Terrapin Station.flac
7b28ca8978dbe68e0dd9af492f06453a *13 Drumz.flac
721353a5d45b9e3c5adc1d18a90d522e *14 Space.flac
eba58788ed32364e3d7d405b6f977a40 *15 The Last Time.flac
442bf2aa6cfd11d3f7f7b7b0ef51f17d *16 Attics Of My Life.flac
b8cb078ae37a620ea29481838202eccb *17 Johnny B. Goode.flac
700f7fb4168b74ec2fc137e9521b9bb9 *18 Baby Blue.flac

Comments
Add Comment
Other Sources (comments)
AKG 460B + CK8 > D3 @48k;... (1) Shntool fix (by Chris L) of... (0) flac16/48 Source... (0)
Date User Comment