Browse Collections Artists Sources   Search Dates

Add Show    List Management    Help


Grateful Dead 05/05/90
Cal State Dominguez Hills, Carson, CA
Comments Add Comment    Source Collectors    Add to Collection    Add to Want List    History
Source # 141262 Other Sources
Entered by Matt Vernon
Checksums ffp , flac-md5
Disc Counts 0 / 0
Media Size
Date Circulated
Date Added

03/04/2018
Source Summary flac24/96 Recording Info: UltraMatrix SBD > Cassette Master (TDK MA-X90). Transfer Info: Cassette Master (Nakamichi CR-7A) > Tascam DA-3000 (DSF 1-bit/5.6 MHz) > KORG AudioGate 4 > Adobe Audition CC2015 > Samplitude Pro X3 Suite > FLAC/24 (1 Disc FLAC). All Transfers and Mastering By Charlie Miller 
  Archive
Source Information - Download Text | Download Zip
Grateful Dead - May 5, 1990
Dominguez Hills - Carson, CA
California State University Dominguez Hills

Recording Info:
UltraMatrix SBD > Cassette Master (TDK MA-X90)

Transfer Info:
Cassette Master (Nakamichi CR-7A) > Tascam DA-3000 (DSF 1-bit/5.6 MHz) >
KORG AudioGate 4 > Adobe Audition CC2015 > Samplitude Pro X3 Suite > FLAC/24
(1 Disc FLAC)

All Transfers and Mastering By Charlie Miller
[email protected]
March 2, 2018

Notes:
-- Two sets of masters were used to make this show complete

Set 1:
01 - Tuning
02 - Let The Good Times Roll
03 - The Race Is On
04 - Help On The Way >
05 - Slipknot! >
06 - Franklin's Tower
07 - Queen Jane Approximately
08 - Loser
09 - Me And My Uncle >
10 - Mexicali Blues
11 - Loose Lucy
12 - One More Saturday Night

Set 2:
13 - Tuning
14 - Truckin' >
15 - Crazy Fingers >
16 - Playing In The Band >
17 - Uncle John's Band >
18 - Drums >
19 - Space >
20 - I Need A Miracle >
21 - Dear Mr. Fantasy >
22 - Goin' Down The Road Feeling Bad >
23 - Around And Around

Encore:
24 - Encore Break
25 - Touch Of Grey


SHNTOOL OUTPUT:
    length     expanded size    cdr  WAVE problems  fmt   ratio  filename
     1:24.004      48386222 B   cxx   --   ---xx   flac  0.6488  01 Tuning.flac
     3:57.414     136750766 B   cxx   --   ---xx   flac  0.6909  02 Let The Good Times Roll.flac
     4:06.817     142166438 B   cxx   --   ---xx   flac  0.6805  03 The Race Is On.flac
     3:58.395     137315294 B   cxx   --   ---xx   flac  0.6822  04 Help On The Way.flac
     4:16.027     147471512 B   cxx   --   ---xx   flac  0.6799  05 Slipknot!.flac
    11:24.123     394054826 B   cxx   --   ---xx   flac  0.6851  06 Franklin's Tower.flac
     8:06.700     280339526 B   cxx   --   ---xx   flac  0.6850  07 Queen Jane Approximately.flac
     9:17.851     321322448 B   cxx   --   ---xx   flac  0.6861  08 Loser.flac
     2:52.096      99127544 B   cxx   --   ---xx   flac  0.7088  09 Me And My Uncle.flac
     6:24.091     221236532 B   cxx   --   ---xx   flac  0.6922  10 Mexicali Blues.flac
    10:37.198     367026062 B   cxx   --   ---xx   flac  0.6844  11 Loose Lucy.flac
     5:54.771     204347858 B   cxx   --   ---xx   flac  0.6936  12 One More Saturday Night.flac
     0:26.466      15244364 B   cxx   --   ---xx   flac  0.6088  13 Tuning.flac
     7:51.202     271412360 B   cxx   --   ---xx   flac  0.6716  14 Truckin'.flac
     8:20.984     288566636 B   cxx   --   ---xx   flac  0.6675  15 Crazy Fingers.flac
     9:21.711     323545604 B   cxx   --   ---xx   flac  0.6699  16 Playing In The Band.flac
    10:54.473     376976672 B   cxx   --   ---xx   flac  0.6689  17 Uncle John's Band.flac
     8:24.972     290863982 B   cxx   --   ---xx   flac  0.6254  18 Drums.flac
     6:50.664     236542466 B   cxx   --   ---xx   flac  0.6541  19 Space.flac
     3:33.505     122979044 B   cxx   --   ---xx   flac  0.6714  20 I Need A Miracle.flac
     7:09.932     247641134 B   cxx   --   ---xx   flac  0.6706  21 Dear Mr Fantasy.flac
     6:41.298     231147788 B   cxx   --   ---xx   flac  0.6742  22 Goin' Down The Road Feeling Bad.flac
     6:58.632     241131854 B   cxx   --   ---xx   flac  0.6673  23 Around And Around.flac
     1:41.114      58241540 B   cxx   --   ---xx   flac  0.6121  24 Encore Break.flac
     7:07.534     246259634 B   cxx   --   ---xx   flac  0.6713  25 Touch Of Grey.flac
   157:41.974    5450098106 B                            0.6737  (25 files)


Show Checksums
ffp
01 Tuning.flac:ce9053d23255dc32174940eaf2064eb4
02 Let The Good Times Roll.flac:a353f0b8a20fd0fb337cee95b033f622
03 The Race Is On.flac:95f0a760124c1e368a54f613d5024e78
04 Help On The Way.flac:d340840043c423a50562aed146f6a03c
05 Slipknot!.flac:6d178d3137883263dd25a1446026f840
06 Franklin's Tower.flac:7a43c1a62571ead7989f2023efbfb0be
07 Queen Jane Approximately.flac:c0617110afbf4aa978de1bc9f9fef8d4
08 Loser.flac:31ba4252c82e481b2e846f290ff9b1da
09 Me And My Uncle.flac:b6a7b44dc5e20c64b1475be197f1ac44
10 Mexicali Blues.flac:f49386534fd7097542f0d1898dd35532
11 Loose Lucy.flac:37f45081c199cd42bce455c96e73d3db
12 One More Saturday Night.flac:0d407a6483b53ed27924bbb754e88214
13 Tuning.flac:ca876c63186cb11f0acb023257a2e9fe
14 Truckin'.flac:92ca31d4a306c6c6646aedbe91325327
15 Crazy Fingers.flac:6be25a0ac216fd528e58fbdc1ef62b47
16 Playing In The Band.flac:33db71c276f4c0c869b2ea8b90bb3f58
17 Uncle John's Band.flac:666ff0a5be869f3f2967e700e6bf4a8a
18 Drums.flac:deb140cfe479c0ed20cc947a8ee6de59
19 Space.flac:5e5b1b6b43fc50a530768bd5bc50f2a8
20 I Need A Miracle.flac:9c2f7bc710cb81d3dc78f87e09854151
21 Dear Mr Fantasy.flac:20c6423d7fddb924ac17e429b53b36d2
22 Goin' Down The Road Feeling Bad.flac:1d1d5663c7f8237824e8df661dbe72db
23 Around And Around.flac:7fdfbe2b0f00eeffda608ac9b50a1f90
24 Encore Break.flac:0b52b4bbb73eb3964a1f008a4fbf38ed
25 Touch Of Grey.flac:6f937192ec5ae81749b70873402ee479
flac-md5
025e6e768972465831b45cf0c320854c *01 Tuning.flac
e915bd85fa2a3f98bc4dc0febe5563bd *02 Let The Good Times Roll.flac
25d36b67addb73b8f664b8f627ecc3dd *03 The Race Is On.flac
d9c6cc7b32780c0971d0b4bd3ca441dc *04 Help On The Way.flac
7a6ee3d6ed067f9ba0b212a646244873 *05 Slipknot!.flac
fad912e8692db8e1203901eb6220208b *06 Franklin's Tower.flac
a390e5ce0f958354843918fc629aa5c8 *07 Queen Jane Approximately.flac
aaf405e38e80c4b5e50f5dc911edc0c9 *08 Loser.flac
2c8b930da22ea795bde7b20703269ae3 *09 Me And My Uncle.flac
5aadb9666d25f1ba60afae19d5cc7aa5 *10 Mexicali Blues.flac
3e210c1c60a57e67e9ea2be0a594ec66 *11 Loose Lucy.flac
642a293a77fca40c713c8e339ce1e6ef *12 One More Saturday Night.flac
47d4d85206f1017b7509ee38bfb71381 *13 Tuning.flac
b0d91ed244d01653bf36e0334ef47741 *14 Truckin'.flac
b29e0d0d8a4226e3cc74fa1275c66f08 *15 Crazy Fingers.flac
1ff678e8f6dcc09426702498e8877ba7 *16 Playing In The Band.flac
7e2f9595b7ad98c8edd1bc6cda007538 *17 Uncle John's Band.flac
ca8980205909883ad43ce89b85dabe6b *18 Drums.flac
60450382c8dfd4d6b184b8e92ad85f32 *19 Space.flac
437f831950b65e0468c2bf5c515467d1 *20 I Need A Miracle.flac
e9388a879c852049b26d164a4caf7a99 *21 Dear Mr Fantasy.flac
86b9c5e3fa36a0a1f7facfcf8058a6fc *22 Goin' Down The Road Feeling Bad.flac
67ac1313c32fad6d8834e4ca021b6e7e *23 Around And Around.flac
e5f0d438ac9d1bbf47ec50e6cf8fa9e8 *24 Encore Break.flac
6b7937f10c09d15710e8c1f7de0af6a6 *25 Touch Of Grey.flac

Comments
Add Comment
Other Sources (comments)
DSBD> Cass> DAT> CD> EAC... (3) DSBD>DAT>CDR; Encore from... (4) flac16; Set 1 only,... (0) flac16; Source: (3)... (2) flac16; Source info:... (0) flac24; Source: B&K... (0) flac24; Set 1... (0) flac16; Set 1... (0) flac16; Bruel and... (0) flac16; This is an... (0) flac16/48kHz; Set I... (0) flac16; Recording... (0) flac16/48kHz; Ted... (0)
Date User Comment