Browse Collections Artists Sources   Search Dates

Add Show    List Management    Help


Grateful Dead 11/24/72
Dallas Memorial Auditorium, Dallas, TX
Comments Add Comment    Source Collectors    Add to Collection    Add to Want List    History
Source # 141267 Other Sources
Entered by Matt Vernon
Checksums ffp , flac-md5
Disc Counts 0 / 0
Media Size
Date Circulated
Date Added
03/05/2018
03/05/2018
Source Summary flac24; Recording Info: Master Soundboard Reels > Bob Menke's 1st generation reels > Pat Lee's 2nd generation reels @ 3.75 ips (dolby decoded); Transfer Info: 2nd generation Reels (Technics RS-1506) > Apogee Mini Me > Mini DAC > WaveLab 5(.wav 24-bit/96k)> Adobe Audition 3.0 (24/96)> TLH flac2496 
  Archive
Source Information - Download Text | Download Zip
Grateful Dead
Memorial Auditorium
Dallas, TX
Friday November 24, 1972

Recording Info:
Master Soundboard Reels > Bob Menke's 1st generation reels > Pat Lee's 2nd generation reels @ 3.75 ips (dolby decoded)

Transfer Info:
2nd generation Reels (Technics RS-1506) > Apogee Mini Me > Mini DAC > WaveLab 5(.wav 24-bit/96k)> Adobe Audition 3.0 (24/96)> TLH flac2496

Notes:
- Thanks to Bob Menke for the 1st generation reels
- Thanks to Pat Lee for the 2nd generation reels
- Thanks to Matt Smith for the transfer
- Thanks to Charlie Miller for coordinating this effort
- Thanks to m.allen and anonymous for their critical listening assistance
- Levels smoothed
- Mix issues in "Don't Ease Me In"
- Phil prominent in the mix
- Beginning of "Tennessee Jed" clipped
- Tape flip in "China Cat Sunflower" smoothed


Set One:
s1 t01 - Don't Ease Me In
s1 t02 - "Pigpen's not with us tonight......"
s1 t03 - Me & My Uncle
s1 t04 - Brown Eyed Women
s1 t05 - Black Throated Wind
s1 t06 - Bertha
s1 t07 - El Paso
s1 t08 - Deal
s1 t09 - Technical Difficulties
s1 t10 - Beat It On Down The Line
s1 t11 - //Tennessee Jed
s1 t12 - Jack Straw
s1 t13 - Sugaree
s1 t14 - Playin' In The Band

Set Two:
s2 t01 - China// Cat Sunflower >
s2 t02 - I Know You Rider
s2 t03 - Box Of Rain
s2 t04 - Truckin'
s2 t05 - Ramble On Rose
s2 t06 - Big River
s2 t07 - Casey Jones
s2 t08 - Sugar Magnolia
s2 t09 - Not Fade Away >
s2 t10 - Goin' Down The Road Feeling Bad >
s2 t11 - Not Fade Away



    length     expanded size    cdr  WAVE problems  fmt   ratio  filename
     3:33.587     123025964 B   cxx   --   ---xx   flac  0.6469  gd72-11-24 s1 t01 Don't Ease Me In.flac
     0:51.107      29437484 B   cxx   --   ---xx   flac  0.6069  gd72-11-24 s1 t02 Pigpen's not with us tonight.flac
     3:15.027     112335404 B   cxx   --   ---xx   flac  0.6404  gd72-11-24 s1 t03 Me & My Uncle.flac
     5:03.120     174597164 B   cxx   --   ---xx   flac  0.6396  gd72-11-24 s1 t04 Brown Eyed Women.flac
     6:55.280     239201324 B   cxx   --   ---xx   flac  0.6438  gd72-11-24 s1 t05 Black Throated Wind.flac
     6:04.267     209817644 B   cxx   --   ---xx   flac  0.6477  gd72-11-24 s1 t06 Bertha.flac
     4:57.333     171264044 B   cxx   --   ---xx   flac  0.6352  gd72-11-24 s1 t07 El Paso.flac
     4:20.013     149767724 B   cxx   --   ---xx   flac  0.6433  gd72-11-24 s1 t08 Deal.flac
     1:32.453      53253164 B   cxx   --   ---xx   flac  0.6124  gd72-11-24 s1 t09 Technical Difficulties.flac
     3:12.080     110638124 B   cxx   --   ---xx   flac  0.6485  gd72-11-24 s1 t10 Beat It On Down The Line.flac
     7:06.373     245591084 B   cxx   --   ---xx   flac  0.6416  gd72-11-24 s1 t11 Tennessee Jed.flac
     5:08.160     177500204 B   cxx   --   ---xx   flac  0.6429  gd72-11-24 s1 t12 Jack Straw.flac
     7:28.720     258462764 B   cxx   --   ---xx   flac  0.6338  gd72-11-24 s1 t13 Sugaree.flac
    20:58.289     724774292 B   cxx   --   ---xx   flac  0.6381  gd72-11-24 s1 t14 Playin' In The Band.flac
     5:24.213     186746924 B   cxx   --   ---xx   flac  0.6418  gd72-11-24 s2 t01 China Cat Sunflower.flac
     4:59.573     172554284 B   cxx   --   ---xx   flac  0.6468  gd72-11-24 s2 t02 I Know You Rider.flac
     4:59.307     172400684 B   cxx   --   ---xx   flac  0.6417  gd72-11-24 s2 t03 Box Of Rain.flac
    12:45.840     441123884 B   cxx   --   ---xx   flac  0.6495  gd72-11-24 s2 t04 Truckin'.flac
     6:16.573     216906284 B   cxx   --   ---xx   flac  0.6471  gd72-11-24 s2 t05 Ramble On Rose.flac
     4:19.907     149706284 B   cxx   --   ---xx   flac  0.6415  gd72-11-24 s2 t06 Big River.flac
     6:49.027     235599404 B   cxx   --   ---xx   flac  0.6449  gd72-11-24 s2 t07 Casey Jones.flac
     9:28.000     327168044 B   cxx   --   ---xx   flac  0.6502  gd72-11-24 s2 t08 Sugar Magnolia.flac
     9:28.187     327275564 B   cxx   --   ---xx   flac  0.6441  gd72-11-24 s2 t09 Not Fade Away.flac
     7:11.880     248762924 B   cxx   --   ---xx   flac  0.6470  gd72-11-24 s2 t10 Goin' Down The Road Feeling Bad.flac
     5:24.317     186806426 B   cxx   --   ---xx   flac  0.6435  gd72-11-24 s2 t11 Not Fade Away.flac
   157:32.632    5444717090 B                            0.6428  (25 files)


Show Checksums
ffp
gd72-11-24 s1 t01 Don't Ease Me In.flac:451c23e276ec407548ed4992eb05ea41
gd72-11-24 s1 t02 Pigpen's not with us tonight.flac:5a535b22d63dc753e3b0076e7020cb48
gd72-11-24 s1 t03 Me & My Uncle.flac:e49a5711ca07798c01189a4e76cd714e
gd72-11-24 s1 t04 Brown Eyed Women.flac:09428b23adaa425e472c00148d223c19
gd72-11-24 s1 t05 Black Throated Wind.flac:8bd2dfd0f6c72b93b7e62cd6187190ed
gd72-11-24 s1 t06 Bertha.flac:dd6625e2c70994d38fbac6e67625ea87
gd72-11-24 s1 t07 El Paso.flac:c1c3e93612048b635e8e6dbf982251ac
gd72-11-24 s1 t08 Deal.flac:c4fe9aa2bf1ac4326cd49b2e538ce078
gd72-11-24 s1 t09 Technical Difficulties.flac:b3bbc3a10eab6f8c9915df65c1e7d01a
gd72-11-24 s1 t10 Beat It On Down The Line.flac:e3053b06f12476cf83580bf4a8341fbf
gd72-11-24 s1 t11 Tennessee Jed.flac:9cab8bfdbd1492e52b8bbd20717d8d1d
gd72-11-24 s1 t12 Jack Straw.flac:1532be5109dba8e3fe8a87a19d8c38c2
gd72-11-24 s1 t13 Sugaree.flac:6a82a6cec79583ecda180100cc3a1654
gd72-11-24 s1 t14 Playin' In The Band.flac:7418b9e98a918bf9bc839a77e9f8552d
gd72-11-24 s2 t01 China Cat Sunflower.flac:9db587b6ecd210766a1f43dc7bffafec
gd72-11-24 s2 t02 I Know You Rider.flac:2ad0821161c2401bfd5438d71f42e143
gd72-11-24 s2 t03 Box Of Rain.flac:0161402309a21d1f8fa2386eb648c796
gd72-11-24 s2 t04 Truckin'.flac:add2393d8487400022a8cf87cfde308f
gd72-11-24 s2 t05 Ramble On Rose.flac:86882c97bf13dbb64e7ad84cceebc235
gd72-11-24 s2 t06 Big River.flac:1768fedf25c2e7195be4fd80c2cbc4c5
gd72-11-24 s2 t07 Casey Jones.flac:28b8bbaa020c5dd5f087ca26a43cb535
gd72-11-24 s2 t08 Sugar Magnolia.flac:379a3085a52e2082bf5e709ae14aad53
gd72-11-24 s2 t09 Not Fade Away.flac:15cf912e46159e9d4b848167ddb5ab38
gd72-11-24 s2 t10 Goin' Down The Road Feeling Bad.flac:cce3a33b83228023f0004cc1b3d85760
gd72-11-24 s2 t11 Not Fade Away.flac:64cbad5681c55473e2f59d2d4cd829ba
flac-md5
f2d3408b5620cbb302a3a4fdff8a2526 *gd72-11-24 s1 t01 Don't Ease Me In.flac
4f5811f8b536adbd07e0662efc1d8195 *gd72-11-24 s1 t02 Pigpen's not with us tonight.flac
d58ca80540d614fa1a46dc95ce608e52 *gd72-11-24 s1 t03 Me & My Uncle.flac
baaf13e82ad294c225058330b5c13ecb *gd72-11-24 s1 t04 Brown Eyed Women.flac
da5894d4f97e750cfa0e5f6fcc499bda *gd72-11-24 s1 t05 Black Throated Wind.flac
e2d741e502d542f47ac3f9602f383445 *gd72-11-24 s1 t06 Bertha.flac
69912560d908f3c93c219f48cce0b48a *gd72-11-24 s1 t07 El Paso.flac
d88bc37bd14bde3c56db83b185765d07 *gd72-11-24 s1 t08 Deal.flac
d3ab7b806ab96f8e3e993b44f6a2fa32 *gd72-11-24 s1 t09 Technical Difficulties.flac
9b47192c0b18ab70597b98405bf6c02f *gd72-11-24 s1 t10 Beat It On Down The Line.flac
7fac2aadf99093565243e6326d0c2e38 *gd72-11-24 s1 t11 Tennessee Jed.flac
13779924974247a9947b11e1bd2c62ab *gd72-11-24 s1 t12 Jack Straw.flac
8d8bda0ceeb2f012ae10414f3c25d5ca *gd72-11-24 s1 t13 Sugaree.flac
c8b9529c93ec8c4ce5de6e1ef12b0bcd *gd72-11-24 s1 t14 Playin' In The Band.flac
f68577d523ced42434fde614cf87ae60 *gd72-11-24 s2 t01 China Cat Sunflower.flac
8ac662f67d466c4597665cd551e917b1 *gd72-11-24 s2 t02 I Know You Rider.flac
0d67532fb9bdb1df531e2d1877d99c44 *gd72-11-24 s2 t03 Box Of Rain.flac
7013f27de7bb6a3bd528e8fcfaf96ee7 *gd72-11-24 s2 t04 Truckin'.flac
cef4b9b3d37022f08d7d327fa6260647 *gd72-11-24 s2 t05 Ramble On Rose.flac
8cb0e6b9186a2be9206a94d66a9363a1 *gd72-11-24 s2 t06 Big River.flac
6a5621b213e9cb5842705adc8e966ac6 *gd72-11-24 s2 t07 Casey Jones.flac
44daf77f27537eb25cf4eaf4a30abf02 *gd72-11-24 s2 t08 Sugar Magnolia.flac
099d683e825cda522ca8da3a518a10fe *gd72-11-24 s2 t09 Not Fade Away.flac
15ad13028a655f3b21b8fff0e75cb427 *gd72-11-24 s2 t10 Goin' Down The Road Feeling Bad.flac
7268a48ecb658d975608dec0469bb5f6 *gd72-11-24 s2 t11 Not Fade Away.flac

Comments
Add Comment
Other Sources (comments)
SBD> MR> DAT> CDR> EAC>... (6) flac16; Recording... (0)
Date User Comment