Browse Collections Artists Sources   Search Dates

Add Show    List Management    Help


Grateful Dead 05/06/90
Cal State Dominguez Hills, Carson, CA
Comments Add Comment    Source Collectors    Add to Collection    Add to Want List    History
Source # 141276 Other Sources
Entered by Matt Vernon
Checksums ffp , flac-md5
Disc Counts 0 / 0
Media Size Compressed: 1.09 GB (1170497536 bytes)
Date Circulated
Date Added
03/06/2018
03/06/2018
Source Summary flac16; Recording Info: UltraMatrix SBD > Cassette Master (TDK MA-X90) Transfer Info: Cassette Master (Nakamichi CR-7A) > Tascam DA-3000 (DSF 1-bit/5.6 MHz) > KORG AudioGate 4 > Adobe Audition CC2015 > Samplitude Pro X3 Suite > FLAC/24 (1 Disc FLAC). All Transfers and Mastering By Charlie Miller 
  Archive
Source Information - Download Text | Download Zip
Grateful Dead - May 6, 1990
Dominguez Hills - Carson, CA
California State University Dominguez Hills

Recording Info:
UltraMatrix SBD > Cassette Master (TDK MA-X90)

Transfer Info:
Cassette Master (Nakamichi CR-7A) > Tascam DA-3000 (DSF 1-bit/5.6 MHz) >
KORG AudioGate 4 > Adobe Audition CC2015 > Samplitude Pro X3 Suite > FLAC/24
(1 Disc FLAC)

All Transfers and Mastering By Charlie Miller
[email protected]
March 4, 2018

Notes:
-- Two sets of masters were used to make this show complete
-- This file set is 16 bit

Set 1:
01 - Tuning
02 - Mississippi Half-Step Uptown Toodleloo >
03 - Feel Like A Stranger
04 - Easy To Love You
05 - West L.A. Fadeaway
06 - When I Paint My Masterpiece
07 - Candyman
08 - Victim Or The Crime >
09 - Foolish Heart

Set 2:
10 - Tuning
11 - Iko Iko
12 - Samson And Delilah
13 - The Weight
14 - Blow Away
15 - Terrapin Station >
16 - Drums >
17 - Space >
18 - The Other One >
19 - Standing On The Moon >
20 - Throwing Stones >
21 - Turn On Your Lovelight

Encore:
22 - Encore Break
23 - The Last Time


SHNTOOL OUTPUT:
    length     expanded size    cdr  WAVE problems  fmt   ratio  filename
     2:04.22       21925388 B   ---   --   ---xx   flac  0.5207  01 Tuning.flac
     8:58.17       94943228 B   ---   --   ---xx   flac  0.6646  02 Mississippi Half-Step Uptown Toodleloo.flac
     9:35.48      101542940 B   ---   --   ---xx   flac  0.6589  03 Feel Like A Stranger.flac
     6:33.64       69475772 B   ---   --   ---xx   flac  0.6550  04 Easy To Love You.flac
     7:35.19       80306732 B   ---   --   ---xx   flac  0.6635  05 West LA Fadeaway.flac
     7:12.53       76329500 B   ---   --   ---xx   flac  0.6217  06 When I Paint My Masterpiece.flac
     7:56.35       84048764 B   ---   --   ---xx   flac  0.6413  07 Candyman.flac
     8:26.28       89324300 B   ---   --   ---xx   flac  0.6641  08 Victim Or The Crime.flac
     9:35.51      101549996 B   ---   --   ---xx   flac  0.6852  09 Foolish Heart.flac
     1:05.20       11513084 B   ---   --   ---xx   flac  0.4675  10 Tuning.flac
    10:10.52      107726348 B   ---   --   ---xx   flac  0.6660  11 Iko Iko.flac
     7:30.66       79535276 B   ---   --   ---xx   flac  0.6728  12 Samson And Delilah.flac
     7:34.62       80231468 B   ---   --   ---xx   flac  0.6454  13 The Weight.flac
     6:43.03       71096300 B   ---   --   ---xx   flac  0.6967  14 Blow Away.flac
    15:37.14      165319772 B   ---   --   ---xx   flac  0.6561  15 Terrapin Station.flac
     7:15.40       76828124 B   ---   --   ---xx   flac  0.5689  16 Drums.flac
     9:09.56       96975356 B   ---   --   ---xx   flac  0.5489  17 Space.flac
     6:02.59       63995612 B   ---   --   ---xx   flac  0.6703  18 The Other One.flac
     9:03.40       95879324 B   ---   --   ---xx   flac  0.6362  19 Standing On The Moon.flac
     9:29.23      100425740 B   ---   --   ---xx   flac  0.6643  20 Throwing Stones.flac
     5:46.08       61053260 B   ---   --   ---xx   flac  0.6780  21 Turn On Your Lovelight.flac
     1:41.70       17981084 B   ---   --   ---xx   flac  0.5018  22 Encore Break.flac
     5:46.71       61201436 B   ---   --   ---xx   flac  0.6797  23 The Last Time.flac
   170:56.21     1809208804 B                            0.6469  (23 files)


Show Checksums
ffp
01 Tuning.flac:f32928209f51c290cdc799f4a9110a1a
02 Mississippi Half-Step Uptown Toodleloo.flac:62bfb2a67660e45ac8f18c9137997284
03 Feel Like A Stranger.flac:6a69cc118abbdd2a5167ec118d95d69f
04 Easy To Love You.flac:ea19077f5e610df8ae7300ace01db73d
05 West LA Fadeaway.flac:d27ba91f7e650400605b9c2e37554ee3
06 When I Paint My Masterpiece.flac:fddb1ff5d1502d9afb7a7c2736c1b19c
07 Candyman.flac:4b0affec4a079f05bb9a011923eedeb4
08 Victim Or The Crime.flac:99169d4e9be89281e14e3e8a4e4e71da
09 Foolish Heart.flac:90b96916506baa1af648a89a2a50dbd6
10 Tuning.flac:d52f1854b783afaa7b4e796087a46fa3
11 Iko Iko.flac:a24f762bdc1a1da0166a37fe32022904
12 Samson And Delilah.flac:2548ffc1589c75d22d69f21d0f5e38fd
13 The Weight.flac:aef26373dec854c946951f876d12b6c1
14 Blow Away.flac:5436832f97822afd6911ab3ae5641147
15 Terrapin Station.flac:5a7eb6dfccffc71a0a60ee1fb0770f32
16 Drums.flac:7ed35bf1330b247220d9e841216282f0
17 Space.flac:6455195728db95eaf3017c129e102d21
18 The Other One.flac:0b43584f2ba087091e709d0a03e076b7
19 Standing On The Moon.flac:662806166aa55a3c108f620ec5dd9221
20 Throwing Stones.flac:b3d9de58cb6ab8cb82b8171f831bb708
21 Turn On Your Lovelight.flac:b67ca04f9de06649ea9940e0c32b1cdc
22 Encore Break.flac:abff9805dae98db30e5a1efbec25c84d
23 The Last Time.flac:4d66adbbc43dd13acf3f50da5e1c4f58
flac-md5
7edcb590051a0dc8fda74f6a775d8dac *01 Tuning.flac
3577e33ba2538c265d5fc5805cb64866 *02 Mississippi Half-Step Uptown Toodleloo.flac
938c1b8c01df23d78c8f69acc1e849f5 *03 Feel Like A Stranger.flac
2605430a31cfc280ae1061441d7666a0 *04 Easy To Love You.flac
ac4d2ffce74ac6ee50ce822e7179e5b4 *05 West LA Fadeaway.flac
81cff4372bb86e42d5ce46f04beffbcd *06 When I Paint My Masterpiece.flac
a7b454efbe3c43edbc68035b73dd25dd *07 Candyman.flac
c49f2690d86ab3e0b26620c7c38bf79a *08 Victim Or The Crime.flac
de96803bff9ee1ab368532d4184457b9 *09 Foolish Heart.flac
74be7419e20657e864234bdfc5aa50e3 *10 Tuning.flac
d100a8392cfea5472fdeeece73ef2825 *11 Iko Iko.flac
d89d344f719a5ebf11cce1b49a50929b *12 Samson And Delilah.flac
a730f254ad1c5769d884ac381d8784b0 *13 The Weight.flac
ddbe36db5e5f30ba7e1f33a253fd330d *14 Blow Away.flac
848527fcaccd28fd2758807961275790 *15 Terrapin Station.flac
82f2be2786526741a70c9adc8f069733 *16 Drums.flac
61f969d5968ca792d47f3428c5a06760 *17 Space.flac
aee059ce0db2a091c747d534d0afd99f *18 The Other One.flac
1ca353013f43b3fe0396c5b21f04ff3a *19 Standing On The Moon.flac
46624325d9fae92cc7df4527f07a5dd4 *20 Throwing Stones.flac
de5e8df7fa5eb8b37c206bac7f5eff88 *21 Turn On Your Lovelight.flac
0a755ffb275a30c5eaa80148e5e1a1cd *22 Encore Break.flac
25355dbda8e87d8e521e20edebe67d1f *23 The Last Time.flac

Comments
Add Comment
Other Sources (comments)
FOB Schoeps CMC44> master... (1) SBD>MC>DAT>CD; via Paul B;... (1) flac16; Recording... (0) flac16; matrix of... (0) flac16; Source: 2... (0) flac16; Source: (3)... (0) flac16; Source info:... (0) flac16 Ambient... (0) flac24/96 Recording... (0) flac16/48kHz; Ted... (0)
Date User Comment