Browse Collections Artists Sources   Search Dates

Add Show    List Management    Help


Grateful Dead 03/23/87
Hampton Coliseum, Hampton, VA
Comments Add Comment    Source Collectors    Add to Collection    Add to Want List    History
Source # 141278 Other Sources
Entered by Matt Vernon
Checksums flac-md5
Disc Counts 0 / 0
Media Size Compressed: 3.28 GB (3523215360 bytes)
Uncompressed: 4.81 GB (5169479680 bytes)
Date Circulated
Date Added
03/06/2018
03/06/2018
Source Summary flac24; Patched & Pitch Corrected Audience (original shnid = 132155) Master Audience Recorded By Steve Hill, Transfer By Keo; Unknown Microphones Labelled "Best Guess Nak100/CP4 Shotguns" > Sony D5, Tapes: Maxell XLII 90's; Transfer With Nakamichi MR-1 > Korg MR-1000 @ 1 Bit/5.6 MHz; Tracking/Sample Rate Conversion/Flacked With AudioGate V.3.02 To 24/96 kHz - pitch correction and patches by Kevin Tobin 
  Archive
Source Information - Download Text | Download Zip
The Grateful Dead
March 23, 1987
Hampton Coliseum
Hampton, Virginia

Patched and pitch corrected audience

Set 1:
s1t01 - Tuning
s1t02 - Touch Of Grey
s1t03 - Little Red Rooster
s1t04 - Althea
s1t05 - Me And My Uncle >
s1t06 - Big River
s1t07 - Iko Iko
s1t08 - Tons Of Steel
s1t09 - Feel Like A Stranger
s1t10 - Don't Ease Me In

Set 2:
s2t01 - Tuning
s2t02 - Box Of Rain
s2t03 - Women Are Smarter
s2t04 - Ship Of Fools
s2t05 - Truckin' >
s2t06 - Drums >
s2t07 - Space >
s2t08 - The Other One >
s2t09 - Stella Blue >
s2t10 - Throwing Stones >
s2t11 - Turn On Your Lovelight

Encore:
s2t12 - U.S. Blues

Jerry Garcia - Guitar
Bob Weir - Guitar
Brent Mydland - Keyboards
Phil Lesh - Bass
Bill Kreutzmann - Drums
Mickey Hart - Drums

Audio Information:
Original  AUD (shnid = 132155)

Master Audience Recorded By Steve Hill, Transfer By Keo!
Unknown Microphones Labelled "Best Guess Nak100/CP4 Shotguns" >
  Sony D5, Tapes: Maxell XLII 90's
Transfer With Nakamichi MR-1 > Korg MR-1000 @ 1 Bit/5.6 MHz
Tracking/Sample Rate Conversion/Flacked With AudioGate V.3.02 To 24/96 kHz
  Metadata Tagging With Tag&Rename

Comments:Another Huge Thanks out to Steve for
recording and sharing his source for this show!
A few areas with higher recording levels and
the tapes were not labelled with mic info.
All and all another excellent share from the
Hill collection of Masters and the Grateful
Dead's Spring 1987 Tour!!!!!!
AS ALWAYS ENJOY

AUD was patched with the following:
AUD (shnid = 89057)

taper : Joe D'Amico ''aka'' Joebeacon
nak300 mics w/cp4 shotguns > sony d-5
nak dragon tape deck > sony sbm1 > creative extigy soundcard > cool edit pro > flac frontend
---------------------------------------------------------
- Mixed by [email protected]
- FLAC conversion 06-MAR-2018 - Trader Little Helper
- Tagged 06-MAR-2018 - Tag&Rename
---------------------------------------------------------
Very minor patching. Speedwise the audience was a very fast when compared to other recordings - .6 seconds per minute.

    length     expanded size    cdr  WAVE problems  fmt   ratio  filename
     0:56.090      32314352 B   cxx   he   -----    wav  1.0000  gd1987-03-23s1t01.wav
     6:05.760     210684272 B   cxx   he   -----    wav  1.0000  gd1987-03-23s1t02.wav
     7:44.970     267829232 B   cxx   he   -----    wav  1.0000  gd1987-03-23s1t03.wav
     9:18.560     321737072 B   cxx   he   -----    wav  1.0000  gd1987-03-23s1t04.wav
     3:04.180     106094192 B   cxx   he   -----    wav  1.0000  gd1987-03-23s1t05.wav
     6:51.580     237076592 B   cxx   he   -----    wav  1.0000  gd1987-03-23s1t06.wav
     6:27.020     222930032 B   cxx   he   -----    wav  1.0000  gd1987-03-23s1t07.wav
     6:58.980     241338992 B   cxx   he   -----    wav  1.0000  gd1987-03-23s1t08.wav
     6:28.890     224007152 B   cxx   he   -----    wav  1.0000  gd1987-03-23s1t09.wav
     3:24.487     117791000 B   cxx   he   -----    wav  1.0000  gd1987-03-23s1t10.wav
     1:58.150      68060912 B   cxx   he   -----    wav  1.0000  gd1987-03-23s2t01.wav
     4:59.300     172403312 B   cxx   he   -----    wav  1.0000  gd1987-03-23s2t02.wav
     7:34.620     261867632 B   cxx   he   -----    wav  1.0000  gd1987-03-23s2t03.wav
     9:14.290     319277552 B   cxx   he   -----    wav  1.0000  gd1987-03-23s2t04.wav
    10:00.100     345664112 B   cxx   he   -----    wav  1.0000  gd1987-03-23s2t05.wav
     9:42.580     335572592 B   cxx   he   -----    wav  1.0000  gd1987-03-23s2t06.wav
     5:25.830     187684592 B   cxx   he   -----    wav  1.0000  gd1987-03-23s2t07.wav
     9:17.550     321155312 B   cxx   he   -----    wav  1.0000  gd1987-03-23s2t08.wav
     8:35.020     296658032 B   cxx   he   -----    wav  1.0000  gd1987-03-23s2t09.wav
     7:56.470     274453232 B   cxx   he   -----    wav  1.0000  gd1987-03-23s2t10.wav
     5:35.870     193467632 B   cxx   he   -----    wav  1.0000  gd1987-03-23s2t11.wav
     5:12.585     180055352 B   cxx   he   -----    wav  1.0000  gd1987-03-23s2t12.wav
   142:52.882    4938123152 B                            1.0000  (22 files)





Show Checksums
flac-md5
9a817a58270d31ea570b44d956af53c4 *gd1987-03-23s1t01.flac
034d9e09949dc983fd8fd3a7e4ede035 *gd1987-03-23s1t02.flac
620160ab2f459b9fe62e4a36a5d71b88 *gd1987-03-23s1t03.flac
2f3a8648f14ab93e3ebea42108d6fffa *gd1987-03-23s1t04.flac
94a4eec66a616653245d94046e21abd7 *gd1987-03-23s1t05.flac
094e9f9779b060227c42f7fdc5e03104 *gd1987-03-23s1t06.flac
08d601414093c0aaa5e553460f85e2fb *gd1987-03-23s1t07.flac
7eb88cb19b646acaa41a34790eba6c67 *gd1987-03-23s1t08.flac
c544e2157147197a20a31f9d7da22ed4 *gd1987-03-23s1t09.flac
20f51824cee56087b519a23a2f2acee7 *gd1987-03-23s1t10.flac
279dc3649511bc28a50e1a7a5ca4bcf5 *gd1987-03-23s2t01.flac
036e10d7358327dc5a9880c103c5ea32 *gd1987-03-23s2t02.flac
f78a1effc44e169162ce532840f6ed8a *gd1987-03-23s2t03.flac
427b3c668284574d747b5185514c04ee *gd1987-03-23s2t04.flac
dda555c8bd862c0e2e44b768f79318b2 *gd1987-03-23s2t05.flac
3228930a629112ec4a39460606ee1752 *gd1987-03-23s2t06.flac
0aa3d692f568cd870a6a70f901cd4208 *gd1987-03-23s2t07.flac
3794846d4eeef59c5028cca1e4a4649a *gd1987-03-23s2t08.flac
f7cae0129a6616dda4e87084fa2c5fba *gd1987-03-23s2t09.flac
1be45d4d55d6aad85d0945dee2ea89c6 *gd1987-03-23s2t10.flac
9c5c6b69c26de8d9cb40c1a6bab5d4d2 *gd1987-03-23s2t11.flac
404deeaaa715eed64b24ce1ce3a3c464 *gd1987-03-23s2t12.flac

Comments
Add Comment
Other Sources (comments)
FOB Schoeps CMC44 > Oade... (1) flac16; Source:... (0) flac16; taper : Joe... (0) flac16; Nakamichi... (0) flac16; Recording... (0) flac16; 2 AKG 451s... (0) flac16; Master... (0) flac24; Master... (0) flac24; Updated... (0) flac24; Recording... (0) flac16; Recording... (2) flac16; Patched... (0) flac24; Matrix 2... (0) flac16; Matrix 2... (0) DTS-Audio-CD 5.1... (0) flac16/48kHz; 5.1... (0)
Date User Comment