Browse Collections Artists Sources   Search Dates

Add Show    List Management    Help


Grateful Dead 03/23/87
Hampton Coliseum, Hampton, VA
Comments Add Comment    Source Collectors    Add to Collection    Add to Want List    History
Source # 141279 Other Sources
Entered by Matt Vernon
Checksums ffp , flac-md5
Disc Counts 0 / 0
Media Size Compressed: 903 MB (946864128 bytes)
Uncompressed: 1.41 GB (1512235832 bytes)
Date Circulated
Date Added
03/06/2018
03/06/2018
Source Summary flac16; Patched and Pitch Corrected Audience (original shnid = 132155) Master Audience Recorded By Steve Hill, Transfer By Keo; Unknown Microphones Labelled "Best Guess Nak100/CP4 Shotguns" > Sony D5, Tapes: Maxell XLII 90's; Transfer With Nakamichi MR-1 > Korg MR-1000 @ 1 Bit/5.6 MHz; Tracking/Sample Rate Conversion/Flacked With AudioGate V.3.02 To 24/96 kHz - pitch correction and patches by Kevin Tobin 
  Archive
Source Information - Download Text | Download Zip
The Grateful Dead
March 23, 1987
Hampton Coliseum
Hampton, Virginia

Patched and pitch corrected audience

Set 1:
d1t01 - Tuning
d1t02 - Touch Of Grey
d1t03 - Little Red Rooster
d1t04 - Althea
d1t05 - Me And My Uncle >
d1t06 - Big River
d1t07 - Iko Iko
d1t08 - Tons Of Steel
d1t09 - Feel Like A Stranger
d1t10 - Don't Ease Me In

Set 2:
d2t01 - Tuning
d2t02 - Box Of Rain
d2t03 - Women Are Smarter
d2t04 - Ship Of Fools
d2t05 - Truckin' >
d2t06 - Drums >
d3t01 - Space >
d3t02 - The Other One >
d3t03 - Stella Blue >
d3t04 - Throwing Stones >
d3t05 - Turn On Your Lovelight

Encore:
d3t06 - U.S. Blues

Jerry Garcia - Guitar
Bob Weir - Guitar
Brent Mydland - Keyboards
Phil Lesh - Bass
Bill Kreutzmann - Drums
Mickey Hart - Drums

Audio Information:
Original  AUD (shnid = 132155)

Master Audience Recorded By Steve Hill, Transfer By Keo!
Unknown Microphones Labelled "Best Guess Nak100/CP4 Shotguns" >
  Sony D5, Tapes: Maxell XLII 90's
Transfer With Nakamichi MR-1 > Korg MR-1000 @ 1 Bit/5.6 MHz
Tracking/Sample Rate Conversion/Flacked With AudioGate V.3.02 To 24/96 kHz
  Metadata Tagging With Tag&Rename

Comments:Another Huge Thanks out to Steve for
recording and sharing his source for this show!
A few areas with higher recording levels and
the tapes were not labelled with mic info.
All and all another excellent share from the
Hill collection of Masters and the Grateful
Dead's Spring 1987 Tour!!!!!!
AS ALWAYS ENJOY

AUD was patched with the following:
AUD (shnid = 89057)

taper : Joe D'Amico ''aka'' Joebeacon
nak300 mics w/cp4 shotguns > sony d-5
nak dragon tape deck > sony sbm1 > creative extigy soundcard > cool edit pro > flac frontend
---------------------------------------------------------
- Mixed by [email protected]
- FLAC conversion 06-MAR-2018 - Trader Little Helper
- Tagged 06-MAR-2018 - Tag&Rename
---------------------------------------------------------
Very minor patching. Speedwise the audience was a very fast when compared to other recordings - .6 seconds per minute. r8brain Pro was used to convert pitch & patched 9624 audience to 4416.

Brokedown House Production

    length     expanded size    cdr  WAVE problems  fmt   ratio  filename
     0:56.26        9939596 B   ---   --   -----    wav  1.0000  gd1987-03-23d1t01.wav
     6:05.73       64557740 B   ---   --   -----    wav  1.0000  gd1987-03-23d1t02.wav
     7:43.41       81769676 B   ---   --   -----    wav  1.0000  gd1987-03-23d1t03.wav
     9:20.07       98800508 B   ---   --   -----    wav  1.0000  gd1987-03-23d1t04.wav
     3:03.42       32380028 B   ---   --   -----    wav  1.0000  gd1987-03-23d1t05.wav
     6:49.56       72279356 B   ---   --   -----    wav  1.0000  gd1987-03-23d1t06.wav
     6:29.49       68734892 B   ---   --   -----    wav  1.0000  gd1987-03-23d1t07.wav
     6:58.70       73899884 B   ---   --   -----    wav  1.0000  gd1987-03-23d1t08.wav
     6:28.22       68494988 B   ---   --   -----    wav  1.0000  gd1987-03-23d1t09.wav
     3:24.24       36042092 B   ---   --   -----    wav  1.0000  gd1987-03-23d1t10.wav
     1:58.59       20954012 B   ---   --   -----    wav  1.0000  gd1987-03-23d2t01.wav
     4:58.68       52727180 B   ---   --   -----    wav  1.0000  gd1987-03-23d2t02.wav
     7:33.66       80064476 B   ---   --   -----    wav  1.0000  gd1987-03-23d2t03.wav
     9:15.42       98000828 B   ---   --   -----    wav  1.0000  gd1987-03-23d2t04.wav
     9:59.35      105745964 B   ---   --   -----    wav  1.0000  gd1987-03-23d2t05.wav
     9:43.29      102909452 B   ---   --   -----    wav  1.0000  gd1987-03-23d2t06.wav
     5:25.24       57386492 B   ---   --   -----    wav  1.0000  gd1987-03-23d3t01.wav
     9:18.38       98520620 B   ---   --   -----    wav  1.0000  gd1987-03-23d3t02.wav
     8:34.01       90671996 B   ---   --   -----    wav  1.0000  gd1987-03-23d3t03.wav
     7:55.66       83945276 B   ---   --   -----    wav  1.0000  gd1987-03-23d3t04.wav
     5:36.05       59282204 B   ---   --   -----    wav  1.0000  gd1987-03-23d3t05.wav
     5:12.39       55128572 B   ---   --   -----    wav  1.0000  gd1987-03-23d3t06.wav
   142:52.57     1512235832 B                            1.0000  (22 files)





Show Checksums
ffp
gd1987-03-23d1t01.flac:76e8bacf09498e1367ef8cc26c65d280
gd1987-03-23d1t02.flac:2ce286a9797973af2b2efd79446c61d6
gd1987-03-23d1t03.flac:f902fc7b258f2ffcae611345d0987501
gd1987-03-23d1t04.flac:43c24688f05bc8f08bc31252ffb896e0
gd1987-03-23d1t05.flac:6482a5269e88941bcc3572a5a84b5eb9
gd1987-03-23d1t06.flac:a51cd19a33618dc5a62c8f2281f492eb
gd1987-03-23d1t07.flac:7ff1a169ea98c3f93e60f0a5414118d2
gd1987-03-23d1t08.flac:2a6c71e6142e5c370b9b17010e0c5ade
gd1987-03-23d1t09.flac:57b50b855debd65888d73ae6d461a277
gd1987-03-23d1t10.flac:5e798c08c5a8bb9ce5e5ea7b24ee98ab
gd1987-03-23d2t01.flac:678ac95dcb8b3667f0dce12b0553023c
gd1987-03-23d2t02.flac:c863dfffc0c7e54dc0fe2f60dfd28410
gd1987-03-23d2t03.flac:2073325e4b2cd52c69d0f84bf40e98dc
gd1987-03-23d2t04.flac:79d79e7efa43ab2cd2fd45a79e04fd75
gd1987-03-23d2t05.flac:cd3fd9e12928ec149652988d1def7881
gd1987-03-23d2t06.flac:37f5ec050d611e14def88e3deaa25ad2
gd1987-03-23d3t01.flac:b981a7d88cc0e9da9effa7262b86af25
gd1987-03-23d3t02.flac:51ad9493a42ed8d40011f128f34d0403
gd1987-03-23d3t03.flac:d06d1e680adf8d8556cbde128cb8d087
gd1987-03-23d3t04.flac:f4c4d3c19973dcf8dcfd74c5a5e70787
gd1987-03-23d3t05.flac:71cc6554f1b0d3f4d0b2b0ce927b9eea
gd1987-03-23d3t06.flac:fdae4cb418a85392ebf3daca55a601ba
flac-md5
58c1cddc19d2ed3d2b8f831cab40c946 *gd1987-03-23d1t01.flac
c3fbe1a66a33260492b5cccc690f3d85 *gd1987-03-23d1t02.flac
aa0dd7b70b990fd923367e8ade167658 *gd1987-03-23d1t03.flac
1b63fa28fe6b3ff02b4e863e0240b189 *gd1987-03-23d1t04.flac
2b39850f897990d7f89a43691dac1267 *gd1987-03-23d1t05.flac
e5b2a2f2f5c1583118cb04227cf00a15 *gd1987-03-23d1t06.flac
a7b75a8f1d5058b813527767644e3690 *gd1987-03-23d1t07.flac
c9256eec1981e1dbb497d698fbbd7e47 *gd1987-03-23d1t08.flac
ee59773f66c27206d45f874f0dd20769 *gd1987-03-23d1t09.flac
ed15590531a04ce3c93548a731b872f2 *gd1987-03-23d1t10.flac
2aa56baee5935aa574857f4e118ea6d4 *gd1987-03-23d2t01.flac
ae0ee6cc5cca2bc71c6606c207f4162a *gd1987-03-23d2t02.flac
a913b6bd9cf7bbb0c197ede8012b3726 *gd1987-03-23d2t03.flac
85a873713da6fcb9eb229a1c121106ed *gd1987-03-23d2t04.flac
fd87b6d999b0ab75a6e210ecad2509e7 *gd1987-03-23d2t05.flac
948fae9b9b9bc2f37b984a57ff0c2109 *gd1987-03-23d2t06.flac
822e54433db995e27bd939881fd9ddc4 *gd1987-03-23d3t01.flac
c4d334bc3eb80707605e390ee46fc39a *gd1987-03-23d3t02.flac
e7305d6679a25932a3de59d294d08870 *gd1987-03-23d3t03.flac
b81aa8f8758093cbf6b9f88d1b2f372a *gd1987-03-23d3t04.flac
01b7ede073bcd3184cbc6996038d3b13 *gd1987-03-23d3t05.flac
943771346894680ae306a36ca348cf46 *gd1987-03-23d3t06.flac

Comments
Add Comment
Other Sources (comments)
FOB Schoeps CMC44 > Oade... (1) flac16; Source:... (0) flac16; taper : Joe... (0) flac16; Nakamichi... (0) flac16; Recording... (0) flac16; 2 AKG 451s... (0) flac16; Master... (0) flac24; Master... (0) flac24; Updated... (0) flac24; Recording... (0) flac16; Recording... (2) flac24; Patched &... (0) flac24; Matrix 2... (0) flac16; Matrix 2... (0) DTS-Audio-CD 5.1... (0) flac16/48kHz; 5.1... (0)
Date User Comment