Browse Collections Artists Sources   Search Dates

Add Show    List Management    Help


Grateful Dead 04/02/87
The Centrum, Worcester, MA
Comments Add Comment    Source Collectors    Add to Collection    Add to Want List    History
Source # 141280 Other Sources
Entered by Matt Vernon
Checksums ffp , flac-md5
Disc Counts 0 / 0
Media Size
Date Circulated
Date Added
03/06/2018
03/06/2018
Source Summary flac16; Recording Info: Ray Ackerman's Master Audience Cassettes; 2 x AudioTechnica AT835 mics + 1 x AKG D12E center fill > Yamaha mixer > Sony TC-D5; Transfer Info: Master Cassettes (Sony TCK71) > Grace Design Lunatec V3 (Oade modified) > M-Audio MicroTrack II (wav 24-bit/48k) > WaveLab 5 (24/48) > Adobe Audition 3.0 (24/48) > TLH flac2448; 24-bit > 16-bit via dBpoweramp 
  Archive
Source Information - Download Text | Download Zip
Grateful Dead
The Centrum
Worcester, MA
Thursday  April 2, 1987

This is a 16/44 fileset. 24-bit > 16-bit via dBpoweramp

Recording Info:
Ray Ackerman's Master Audience Cassettes; 2 x AudioTechnica AT835 mics + 1 x AKG D12E center fill > Yamaha mixer > Sony TC-D5

Transfer Info:
Master Cassettes (Sony TCK71) > Grace Design Lunatec V3 (Oade modified) > M-Audio MicroTrack II (wav 24-bit/48k) > WaveLab 5 (24/48) > Adobe Audition 3.0 (24/48) > TLH flac2448


Notes:
- Thanks to Ray Ackerman for the master cassette source and transfer
- Thanks to Charlie Miller for coordinating this effort
- Transitions smoothed

Mastered by Scott Clugston
March 5, 2018

Set One:
t01 - Cold Rain And Snow >
t02 - New Minglewood Blues
t03 - Dupree's Diamond Blues
t04 - Far From Me
t05 - Me And My Uncle >
t06 - Mexicali Blues
t07 - When Push Comes To Shove
t08 - Beat It On Down The Line
t09 - Bird Song >
t10 - The Music Never Stopped

Set Two:
t11 - Scarlet Begonias >
t12 - Fire On The Mountain >
t13 - Looks Like Rain >
t14 - Eyes Of The World >
t15 - Drums >
t16 - Space >
t17 - Gimme Some Lovin' >
t18 - The Wheel >
t19 - Black Peter >
t20 - Around And Around >
t21 - Good Lovin'
Encore:
t22 - Black Muddy River



    length     expanded size    cdr  WAVE problems  fmt   ratio  filename
     6:32.42       69247628 B   ---   --   ---xx   flac  0.5813  gd87-04-02 t01 Cold Rain & Snow.flac
     7:25.63       78646220 B   ---   --   ---xx   flac  0.5772  gd87-04-02 t02 New Minglewood Blues.flac
     6:18.51       66799196 B   ---   --   ---xx   flac  0.5694  gd87-04-02 t03 Dupree's Diamond Blues.flac
     4:57.02       52395548 B   ---   --   ---xx   flac  0.5944  gd87-04-02 t04 Far From Me.flac
     2:56.30       31117004 B   ---   --   ---xx   flac  0.5960  gd87-04-02 t05 Me & My Uncle.flac
     5:19.25       56330444 B   ---   --   ---xx   flac  0.5864  gd87-04-02 t06 Mexicali Blues.flac
     4:49.20       51026684 B   ---   --   ---xx   flac  0.5933  gd87-04-02 t07 When Push Comes To Shove.flac
     3:07.19       33031532 B   ---   --   ---xx   flac  0.6014  gd87-04-02 t08 Beat It On Down The Line.flac
     9:50.42      104174828 B   ---   --   ---xx   flac  0.5692  gd87-04-02 t09 Bird Song.flac
     6:32.52       69271148 B   ---   --   ---xx   flac  0.6002  gd87-04-02 t10 The Music Never Stopped.flac
     8:16.11       87520316 B   ---   --   ---xx   flac  0.5993  gd87-04-02 t11 Scarlet Begonias.flac
     9:59.51      105783596 B   ---   --   ---xx   flac  0.5985  gd87-04-02 t12 Fire On The Mountain.flac
     7:36.73       80610140 B   ---   --   ---xx   flac  0.5786  gd87-04-02 t13 Looks Like Rain.flac
     6:52.67       72834428 B   ---   --   ---xx   flac  0.6068  gd87-04-02 t14 Eyes Of The World.flac
    10:05.49      106837292 B   ---   --   ---xx   flac  0.5488  gd87-04-02 t15 Drums.flac
     5:37.50       59564444 B   ---   --   ---xx   flac  0.5149  gd87-04-02 t16 Space.flac
     4:32.42       48079628 B   ---   --   ---xx   flac  0.6117  gd87-04-02 t17 Gimme Some Lovin'.flac
     4:03.70       43029884 B   ---   --   ---xx   flac  0.5925  gd87-04-02 t18 The Wheel.flac
     9:19.53       98732300 B   ---   --   ---xx   flac  0.5694  gd87-04-02 t19 Black Peter.flac
     3:34.13       37780220 B   ---   --   ---xx   flac  0.6197  gd87-04-02 t20 Around & Around.flac
     9:07.68       96650780 B   ---   --   ---xx   flac  0.6132  gd87-04-02 t21 Good Lovin'.flac
     6:36.14       69887372 B   ---   --   ---xx   flac  0.5847  gd87-04-02 t22 Black Muddy River.flac
   143:33.07     1519350632 B                            0.5845  (22 files)



Show Checksums
ffp
gd87-04-02 t01 Cold Rain & Snow.flac:e9b5962fe93c156dfd4fea7c792fb2ad
gd87-04-02 t02 New Minglewood Blues.flac:1c2d7a1276a672cfaf62a5295e91df8e
gd87-04-02 t03 Dupree's Diamond Blues.flac:7cd4302689c974c3b19ebdc647068d28
gd87-04-02 t04 Far From Me.flac:b4ef4f036b717466ed4e5a9d19d27f18
gd87-04-02 t05 Me & My Uncle.flac:0428a52433f642cec2969ad1e3f02f01
gd87-04-02 t06 Mexicali Blues.flac:e0ae8c00396f28ff6a62a8a0ff7be520
gd87-04-02 t07 When Push Comes To Shove.flac:237c1c4de6173af8385bac4aa7e7372a
gd87-04-02 t08 Beat It On Down The Line.flac:9e1c5ef58cafbe7d675d043d7d869395
gd87-04-02 t09 Bird Song.flac:e19eaf5efb6fe233613538251703824b
gd87-04-02 t10 The Music Never Stopped.flac:2e514327beaaf3d1deac55f4fdd8d3a8
gd87-04-02 t11 Scarlet Begonias.flac:4c7b17791ffab953f0505849e1ed5894
gd87-04-02 t12 Fire On The Mountain.flac:b4714e146bc0393c2bc91f40839140fe
gd87-04-02 t13 Looks Like Rain.flac:c6c202ccc0e90ddc7408cd4e61ee65ae
gd87-04-02 t14 Eyes Of The World.flac:62634f02f2f42a7fed51512631f6056f
gd87-04-02 t15 Drums.flac:da4f079159d0ffe1cf1606d86a3a88ec
gd87-04-02 t16 Space.flac:e3ea7757ba24a62a22ec339d566c2b66
gd87-04-02 t17 Gimme Some Lovin'.flac:837144a3d6930a3c8ba83ff640a9468f
gd87-04-02 t18 The Wheel.flac:452242ceeaaa3861354bb1b6debc61ac
gd87-04-02 t19 Black Peter.flac:05bdfe5d360fc18a90e68579b9c32de5
gd87-04-02 t20 Around & Around.flac:ba33936220d00290cc2f97e584950248
gd87-04-02 t21 Good Lovin'.flac:255aaba941a9a3d2b6e059a0b3142fd1
gd87-04-02 t22 Black Muddy River.flac:3b7d684d3ab25ca8bd497709820411d7
flac-md5
6cf2c44aef8bdfc224f38a5b0be7c7b8 *gd87-04-02 t01 Cold Rain & Snow.flac
68447174144a46de64746ef2f80b755f *gd87-04-02 t02 New Minglewood Blues.flac
176304e4cfc734313c56118ba80a19cd *gd87-04-02 t03 Dupree's Diamond Blues.flac
0b43261fe9a07a01031810a6f2893703 *gd87-04-02 t04 Far From Me.flac
e0bb15f42aa1295a294c3ce8e67bc7e0 *gd87-04-02 t05 Me & My Uncle.flac
e96fa95faf3274cc832d3d64db10daab *gd87-04-02 t06 Mexicali Blues.flac
f2054bc9673010e48eea398943b277c7 *gd87-04-02 t07 When Push Comes To Shove.flac
6539a1ff742bf59092a68004498579d6 *gd87-04-02 t08 Beat It On Down The Line.flac
f98a8d5868ec9c873e3544cf2585ae35 *gd87-04-02 t09 Bird Song.flac
0363645e648c613753c1171e5da4eda9 *gd87-04-02 t10 The Music Never Stopped.flac
8be86e9c352f07b655fdb7a2a70569da *gd87-04-02 t11 Scarlet Begonias.flac
6830a03cd4e8f7115a84d7ba469ec5ae *gd87-04-02 t12 Fire On The Mountain.flac
f8d8b3c8a3d53fecb8a130785774d48f *gd87-04-02 t13 Looks Like Rain.flac
87622b3a9395ff776337030f5122a697 *gd87-04-02 t14 Eyes Of The World.flac
c034823f63a0fd821cf16efd7d0760e3 *gd87-04-02 t15 Drums.flac
586893efcb4c98bbb679fb8d5124ea1f *gd87-04-02 t16 Space.flac
86a0c52288d800f1a156f196abbf5913 *gd87-04-02 t17 Gimme Some Lovin'.flac
2748acced6de8c57cef3e820c8d12a3a *gd87-04-02 t18 The Wheel.flac
8dfb53c347ae92ad2dfe46d99304893f *gd87-04-02 t19 Black Peter.flac
4d31bd3fd0178ed146777a249548e3fa *gd87-04-02 t20 Around & Around.flac
0ef8bbbb67d86887851a490ad0a84dcc *gd87-04-02 t21 Good Lovin'.flac
ace45b3ed5792d92ed41c0d9bcc5950c *gd87-04-02 t22 Black Muddy River.flac

Comments
Add Comment
Other Sources (comments)
AUD>PCM>DAT>CDR; via... (0) flac16; Recording... (0) flac16; nak 300 mics... (0) flac16; Recording... (0) flac16; Nakamichi... (0) flac24; Master... (0) flac16; Master... (0) flac24; Recording... (0) flac16; Recording... (0) flac24; source: nak... (1) flac16; source: nak... (2) flac24; Recording... (0) flac16; Set 2 Source... (0)
Date User Comment