Browse Collections Artists Sources   Search Dates

Add Show    List Management    Help


Grateful Dead 04/02/87
The Centrum, Worcester, MA
Comments Add Comment    Source Collectors    Add to Collection    Add to Want List    History
Source # 141281 Other Sources
Entered by Matt Vernon
Checksums ffp , flac-md5
Disc Counts 0 / 0
Media Size
Date Circulated
Date Added
03/06/2018
03/06/2018
Source Summary flac24; Recording Info: Ray Ackerman's Master Audience Cassettes; 2 x AudioTechnica AT835 mics + 1 x AKG D12E center fill > Yamaha mixer > Sony TC-D5; Transfer Info: Master Cassettes (Sony TCK71) > Grace Design Lunatec V3 (Oade modified) > M-Audio MicroTrack II (wav 24-bit/48k) > WaveLab 5 (24/48) > Adobe Audition 3.0 (24/48) > TLH flac2448 
  Archive
Source Information - Download Text | Download Zip
Grateful Dead
The Centrum
Worcester, MA
Thursday  April 2, 1987

Recording Info:
Ray Ackerman's Master Audience Cassettes; 2 x AudioTechnica AT835 mics + 1 x AKG D12E center fill > Yamaha mixer > Sony TC-D5

Transfer Info:
Master Cassettes (Sony TCK71) > Grace Design Lunatec V3 (Oade modified) > M-Audio MicroTrack II (wav 24-bit/48k) > WaveLab 5 (24/48) > Adobe Audition 3.0 (24/48) > TLH flac2448


Notes:
- Thanks to Ray Ackerman for the master cassette source and transfer
- Thanks to Charlie Miller for coordinating this effort
- Transitions smoothed

Mastered by Scott Clugston
March 5, 2018

Set One:
t01 - Cold Rain And Snow >
t02 - New Minglewood Blues
t03 - Dupree's Diamond Blues
t04 - Far From Me
t05 - Me And My Uncle >
t06 - Mexicali Blues
t07 - When Push Comes To Shove
t08 - Beat It On Down The Line
t09 - Bird Song >
t10 - The Music Never Stopped

Set Two:
t11 - Scarlet Begonias >
t12 - Fire On The Mountain >
t13 - Looks Like Rain >
t14 - Eyes Of The World >
t15 - Drums >
t16 - Space >
t17 - Gimme Some Lovin' >
t18 - The Wheel >
t19 - Black Peter >
t20 - Around And Around >
t21 - Good Lovin'
Encore:
t22 - Black Muddy River



    length     expanded size    cdr  WAVE problems  fmt   ratio  filename
     6:32.560     113057324 B   cxx   --   ---xx   flac  0.7123  gd87-04-02 t01 Cold Rain & Snow.flac
     7:25.840     128401964 B   cxx   --   ---xx   flac  0.7099  gd87-04-02 t02 New Minglewood Blues.flac
     6:18.680     109059884 B   cxx   --   ---xx   flac  0.7050  gd87-04-02 t03 Dupree's Diamond Blues.flac
     4:57.027      85543724 B   cxx   --   ---xx   flac  0.7204  gd87-04-02 t04 Far From Me.flac
     2:56.400      50803244 B   cxx   --   ---xx   flac  0.7214  gd87-04-02 t05 Me & My Uncle.flac
     5:19.333      91968044 B   cxx   --   ---xx   flac  0.7154  gd87-04-02 t06 Mexicali Blues.flac
     4:49.267      83308844 B   cxx   --   ---xx   flac  0.7197  gd87-04-02 t07 When Push Comes To Shove.flac
     3:07.253      53929004 B   cxx   --   ---xx   flac  0.7248  gd87-04-02 t08 Beat It On Down The Line.flac
     9:50.560     170081324 B   cxx   --   ---xx   flac  0.7048  gd87-04-02 t09 Bird Song.flac
     6:32.693     113095724 B   cxx   --   ---xx   flac  0.7238  gd87-04-02 t10 The Music Never Stopped.flac
     8:16.147     142890284 B   cxx   --   ---xx   flac  0.7241  gd87-04-02 t11 Scarlet Begonias.flac
     9:59.680     172707884 B   cxx   --   ---xx   flac  0.7239  gd87-04-02 t12 Fire On The Mountain.flac
     7:36.973     131608364 B   cxx   --   ---xx   flac  0.7116  gd87-04-02 t13 Looks Like Rain.flac
     6:52.893     118913324 B   cxx   --   ---xx   flac  0.7290  gd87-04-02 t14 Eyes Of The World.flac
    10:05.653     174428204 B   cxx   --   ---xx   flac  0.6929  gd87-04-02 t15 Drums.flac
     5:37.667      97248044 B   cxx   --   ---xx   flac  0.6731  gd87-04-02 t16 Space.flac
     4:32.560      78497324 B   cxx   --   ---xx   flac  0.7327  gd87-04-02 t17 Gimme Some Lovin'.flac
     4:03.933      70252844 B   cxx   --   ---xx   flac  0.7207  gd87-04-02 t18 The Wheel.flac
     9:19.707     161195564 B   cxx   --   ---xx   flac  0.7065  gd87-04-02 t19 Black Peter.flac
     3:34.173      61681964 B   cxx   --   ---xx   flac  0.7374  gd87-04-02 t20 Around & Around.flac
     9:07.907     157797164 B   cxx   --   ---xx   flac  0.7335  gd87-04-02 t21 Good Lovin'.flac
     6:36.180     114099752 B   cxx   --   ---xx   flac  0.7158  gd87-04-02 t22 Black Muddy River.flac
   143:33.086    2480569796 B                            0.7149  (22 files)


Show Checksums
ffp
gd87-04-02 t01 Cold Rain & Snow.flac:2ebad72a9c44a1191ee07b6f5ae788f0
gd87-04-02 t02 New Minglewood Blues.flac:6c212db27298f4565a87bf2466efd42f
gd87-04-02 t03 Dupree's Diamond Blues.flac:ef35ab70d6bee4ad082e14ac777283bb
gd87-04-02 t04 Far From Me.flac:cb8a2548e7fb872703af37cf4e881b93
gd87-04-02 t05 Me & My Uncle.flac:6873dc62bb772ca756a72e30492e3bbc
gd87-04-02 t06 Mexicali Blues.flac:6b93b3be45166183ad05819d7f837692
gd87-04-02 t07 When Push Comes To Shove.flac:c67560b82369e89cae44df8a26184979
gd87-04-02 t08 Beat It On Down The Line.flac:280a64e229aa5dff1b695446948aa1e1
gd87-04-02 t09 Bird Song.flac:008426fc82bcea391fc8416bef751391
gd87-04-02 t10 The Music Never Stopped.flac:af85f5efb02be6b0f835185c30bfbcf2
gd87-04-02 t11 Scarlet Begonias.flac:d6968cc90a134b76c1ab6123db343eeb
gd87-04-02 t12 Fire On The Mountain.flac:bbde81b2a9eb947810147755cbf9f03a
gd87-04-02 t13 Looks Like Rain.flac:bd15d7f68afc552c138864025059f1c6
gd87-04-02 t14 Eyes Of The World.flac:dca1680da7cad944e59f4476e00cbfad
gd87-04-02 t15 Drums.flac:22072c6776b205555d90fcf268a7fb80
gd87-04-02 t16 Space.flac:1105f048a313cc402f7f32e86f81ef72
gd87-04-02 t17 Gimme Some Lovin'.flac:cbe9d92af10fab13b35a16596ab2cdb7
gd87-04-02 t18 The Wheel.flac:6bcf16b97b918ac96bf37c421112ecbf
gd87-04-02 t19 Black Peter.flac:fc0cd7788e9c9367b28e8a73872aabe2
gd87-04-02 t20 Around & Around.flac:dd33a573dfd18b7753e90704cf92d266
gd87-04-02 t21 Good Lovin'.flac:eaa330579648831fb30895e4e13bd31b
gd87-04-02 t22 Black Muddy River.flac:44b18d665f3c90f29143d63aa9201695
flac-md5
b7ae76aaacbc0c94122f509e51ce7953 *gd87-04-02 t01 Cold Rain & Snow.flac
f7d0bc88ac50e2e699de6beaec710b1a *gd87-04-02 t02 New Minglewood Blues.flac
e9c306e9e0ed32a648b9b28c6a24dd0e *gd87-04-02 t03 Dupree's Diamond Blues.flac
9899172a5117dd60e50dee300441a68d *gd87-04-02 t04 Far From Me.flac
06b141d3900638758eaf0557cd761893 *gd87-04-02 t05 Me & My Uncle.flac
8fae41306a84f769261c21f37c11d4d4 *gd87-04-02 t06 Mexicali Blues.flac
806ae8d166b897bd0e1032ba4ea62282 *gd87-04-02 t07 When Push Comes To Shove.flac
34295a357b6e08d9872445cb37774f54 *gd87-04-02 t08 Beat It On Down The Line.flac
bba9a8a5bb2fc2873777b36d222a2781 *gd87-04-02 t09 Bird Song.flac
0d4d965043d6cc398408bee97fbb1c09 *gd87-04-02 t10 The Music Never Stopped.flac
2110138e848decef76b8c3d910b90185 *gd87-04-02 t11 Scarlet Begonias.flac
f8b69add1f2e547450fe4ae9f0850fbe *gd87-04-02 t12 Fire On The Mountain.flac
e13d9f9a56ee8a2749fbe23dbff6e2c5 *gd87-04-02 t13 Looks Like Rain.flac
5f272f67435fd8d35d7c19e8fd7f6b16 *gd87-04-02 t14 Eyes Of The World.flac
8e210ad3331a3ea59401765bc033f998 *gd87-04-02 t15 Drums.flac
8dc07a1410752783be74b931a1032133 *gd87-04-02 t16 Space.flac
4b029a8760e500091df7bfe3cc3c1573 *gd87-04-02 t17 Gimme Some Lovin'.flac
90d04ddb4a9d4434e38554cad32a6242 *gd87-04-02 t18 The Wheel.flac
a3b305bed86f773572a8a63422e6b53f *gd87-04-02 t19 Black Peter.flac
1e9cc7bd75a6c21ec4e3646a7840d66c *gd87-04-02 t20 Around & Around.flac
75c41b94a95931cecaece9357ee51dbc *gd87-04-02 t21 Good Lovin'.flac
919836c57f40abcda87987535c8f0ae2 *gd87-04-02 t22 Black Muddy River.flac

Comments
Add Comment
Other Sources (comments)
AUD>PCM>DAT>CDR; via... (0) flac16; Recording... (0) flac16; nak 300 mics... (0) flac16; Recording... (0) flac16; Nakamichi... (0) flac24; Master... (0) flac16; Master... (0) flac24; Recording... (0) flac16; Recording... (0) flac24; source: nak... (1) flac16; source: nak... (2) flac16; Recording... (0) flac16; Set 2 Source... (0)
Date User Comment