Browse Collections Artists Sources   Search Dates

Add Show    List Management    Help


Grateful Dead 04/03/87
The Centrum, Worcester, MA
Comments Add Comment    Source Collectors    Add to Collection    Add to Want List    History
Source # 141282 Other Sources
Entered by Matt Vernon
Checksums ffp , flac-md5
Disc Counts 0 / 0
Media Size
Date Circulated
Date Added
03/06/2018
03/06/2018
Source Summary flac16; Recording Info: Ray Ackerman's Master Audience Cassettes; 2 x AudioTechnica AT835 mics + 1 x AKG D12E center fill > Yamaha mixer > Sony TC-D5; Transfer Info: Master Cassettes (Sony TCK71) > Grace Design Lunatec V3 (Oade modified) > M-Audio MicroTrack II (wav 24-bit/96k) > WaveLab 5 (24/96) > Adobe Audition 3.0 (24/96) > TLH flac2496; 24-bit > 16-bit via dBpoweramp 
  Archive
Source Information - Download Text | Download Zip
Grateful Dead
The Centrum
Worcester, MA
Friday  April 3, 1987

This is a 16/44 fileset. 24-bit > 16-bit via dBpoweramp

Recording Info:
Ray Ackerman's Master Audience Cassettes; 2 x AudioTechnica AT835 mics + 1 x AKG D12E center fill > Yamaha mixer > Sony TC-D5

Transfer Info:
Master Cassettes (Sony TCK71) > Grace Design Lunatec V3 (Oade modified) > M-Audio MicroTrack II (wav 24-bit/96k) > WaveLab 5 (24/96) > Adobe Audition 3.0 (24/96) > TLH flac2496


Notes:
- Thanks to Ray Ackerman for the master cassette source and transfer
- Thanks to Charlie Miller for coordinating this effort
- Thanks to the folks responsible for the shnid89432 Nakamichi 300 source which supplies a 0:01.8 patch in "Let It Grow"
- Thanks to the folks responsible for the shnid99165 Nakamichi 700 source which supplies a 0:58 patch in "Space"
- Other One space included in "The Other One"
- Transitions smoothed

Mastered by Scott Clugston
March 5, 2018

Set One:
s1 t01 - Hell In A Bucket >
s1 t02 - Sugaree
s1 t03 - C C Rider
s1 t04 - It Must Have Been The Roses
s1 t05 - It's All Over Now
s1 t06 - Big Railroad Blues
s1 t07 - Let It Grow >
s1 t08 - Don't Ease Me In

Set Two:
s2 t01 - China Cat Sunflower >
s2 t02 - I Know You Rider
s2 t03 - Man Smart (Woman Smarter)>
s2 t04 - Crazy Fingers >
s2 t05 - Samson And Delilah >
s2 t06 - Drums >
s2 t07 - Space >
s2 t08 - The Other One >
s2 t09 - Wharf Rat >
s2 t10 - Throwing Stones >
s2 t11 - Not Fade Away
Encore:
s2 t12 - U.S. Blues



    length     expanded size    cdr  WAVE problems  fmt   ratio  filename
     5:57.11       63000716 B   ---   --   ---xx   flac  0.6118  gd87-04-03 s1 t01 Hell In A Bucket.flac
     8:49.46       93423836 B   ---   --   ---xx   flac  0.5982  gd87-04-03 s1 t02 Sugaree.flac
     8:12.63       86937020 B   ---   --   ---xx   flac  0.5931  gd87-04-03 s1 t03 CC Rider.flac
     7:12.55       76334204 B   ---   --   ---xx   flac  0.5546  gd87-04-03 s1 t04 It Must Have Been The Roses.flac
     7:38.34       80871212 B   ---   --   ---xx   flac  0.6214  gd87-04-03 s1 t05 It's All Over Now.flac
     4:44.01       50099996 B   ---   --   ---xx   flac  0.6061  gd87-04-03 s1 t06 Big Railroad Blues.flac
    11:53.03      125780300 B   ---   --   ---xx   flac  0.6171  gd87-04-03 s1 t07 Let It Grow.flac
     3:22.32       35708108 B   ---   --   ---xx   flac  0.6378  gd87-04-03 s1 t08 Don't Ease Me In.flac
     5:44.08       60700460 B   ---   --   ---xx   flac  0.6112  gd87-04-03 s2 t01 China Cat Sunflower.flac
     5:25.08       57348860 B   ---   --   ---xx   flac  0.6198  gd87-04-03 s2 t02 I Know You Rider.flac
     6:27.14       68299772 B   ---   --   ---xx   flac  0.6001  gd87-04-03 s2 t03 Man Smart (Woman Smarter).flac
     9:05.72       96307388 B   ---   --   ---xx   flac  0.5758  gd87-04-03 s2 t04 Crazy Fingers.flac
     6:19.21       66905036 B   ---   --   ---xx   flac  0.6208  gd87-04-03 s2 t05 Samson & Delilah.flac
     4:34.21       48383036 B   ---   --   ---xx   flac  0.5541  gd87-04-03 s2 t06 Drums.flac
     3:40.28       38873900 B   ---   --   ---xx   flac  0.5023  gd87-04-03 s2 t07 Space.flac
     7:01.50       74382044 B   ---   --   ---xx   flac  0.5891  gd87-04-03 s2 t08 The Other One.flac
     8:11.28       86678300 B   ---   --   ---xx   flac  0.5761  gd87-04-03 s2 t09 Wharf Rat.flac
     8:05.29       85622252 B   ---   --   ---xx   flac  0.6183  gd87-04-03 s2 t10 Throwing Stones.flac
     5:37.31       59519756 B   ---   --   ---xx   flac  0.5908  gd87-04-03 s2 t11 Not Fade Away.flac
     5:37.33       59524460 B   ---   --   ---xx   flac  0.6162  gd87-04-03 s2 t12 US Blues.flac
   133:39.63     1414700656 B                            0.5972  (20 files)


Show Checksums
ffp
gd87-04-03 s1 t01 Hell In A Bucket.flac:69d2e5c95da4cef8f665f2582ac73762
gd87-04-03 s1 t02 Sugaree.flac:8856e2b9286f87addeab8f26e10ac9ba
gd87-04-03 s1 t03 CC Rider.flac:9761986ac9614963da4b33cf3cb81ee6
gd87-04-03 s1 t04 It Must Have Been The Roses.flac:39f6ca57ac09ac75ebf69ade461a0e54
gd87-04-03 s1 t05 It's All Over Now.flac:277f21b8bc744ad7885b4fb6c9dd8412
gd87-04-03 s1 t06 Big Railroad Blues.flac:8677c319937558905b9e78b8caf8c77c
gd87-04-03 s1 t07 Let It Grow.flac:29b0b1b94cd94b64bb26887a21ca2680
gd87-04-03 s1 t08 Don't Ease Me In.flac:7795f51e683b66d9a906a0b3d707ef3b
gd87-04-03 s2 t01 China Cat Sunflower.flac:992ec350cd50a645f1e8deb1e05dc00a
gd87-04-03 s2 t02 I Know You Rider.flac:91238389d2142907062925ecf8179e1f
gd87-04-03 s2 t03 Man Smart (Woman Smarter).flac:915f461741d9ae052941f8c6db4719ee
gd87-04-03 s2 t04 Crazy Fingers.flac:4f6c9417057cd1350650ef0cdd47818b
gd87-04-03 s2 t05 Samson & Delilah.flac:b8c4be8c880eb5508442c1c903730710
gd87-04-03 s2 t06 Drums.flac:2c3b4bc857f63f3627fbf5a6423a0130
gd87-04-03 s2 t07 Space.flac:1c19fc155fcd6bb3f2d56e3ab3dcc75a
gd87-04-03 s2 t08 The Other One.flac:705db353ce642f98b36da844fdc86828
gd87-04-03 s2 t09 Wharf Rat.flac:28a472fed01dd2da8db25d23c1af2435
gd87-04-03 s2 t10 Throwing Stones.flac:549fdd3d730db21c6b346de2d28ccea0
gd87-04-03 s2 t11 Not Fade Away.flac:1ce6549000dcf8481ce8ef147c1080f3
gd87-04-03 s2 t12 US Blues.flac:5d1694a3d4134ad33dfb951c9892329c
flac-md5
dd73d56e670ca5a470b2c53670b52a06 *gd87-04-03 s1 t01 Hell In A Bucket.flac
24c8a1710f42e7541c7e5c18b01577e8 *gd87-04-03 s1 t02 Sugaree.flac
deedb965b41e72b5b8a1ed2ccd206c95 *gd87-04-03 s1 t03 CC Rider.flac
1de738e77a7fcbb1dfae081ca3c31c84 *gd87-04-03 s1 t04 It Must Have Been The Roses.flac
3901062f23d4299a29c1c902cc6337ae *gd87-04-03 s1 t05 It's All Over Now.flac
1085fee0e22d7b900667bf30e07d29eb *gd87-04-03 s1 t06 Big Railroad Blues.flac
f447cd3e6c40e54ec303d67ba339d3ab *gd87-04-03 s1 t07 Let It Grow.flac
6619b29ac547d4e8b641e758d367a360 *gd87-04-03 s1 t08 Don't Ease Me In.flac
5da0cbe3ececd58e9030efc7a3d43d28 *gd87-04-03 s2 t01 China Cat Sunflower.flac
56d804dc879e05c028a50861e048432a *gd87-04-03 s2 t02 I Know You Rider.flac
edc21869c1c5199cef502f2c0b02a8e5 *gd87-04-03 s2 t03 Man Smart (Woman Smarter).flac
370f6b75b8b09df5411363071cb45873 *gd87-04-03 s2 t04 Crazy Fingers.flac
5eef913ae3012582c4b2f860ccef5dea *gd87-04-03 s2 t05 Samson & Delilah.flac
ac4afdb6d7e63feb2f16df8cf1321b98 *gd87-04-03 s2 t06 Drums.flac
818004d6e204831201eb3e489f6d311c *gd87-04-03 s2 t07 Space.flac
a21c07a5e01373fde48cd5c55e48e863 *gd87-04-03 s2 t08 The Other One.flac
73676fcfacb956555c332a88884f55ea *gd87-04-03 s2 t09 Wharf Rat.flac
ef48ab4f2d19145e10ec4e625cb5b362 *gd87-04-03 s2 t10 Throwing Stones.flac
93af59ba70fbf074945388733e2afac1 *gd87-04-03 s2 t11 Not Fade Away.flac
228e50e23d171028eae2bc91fd4ffc6a *gd87-04-03 s2 t12 US Blues.flac

Comments
Add Comment
Other Sources (comments)
2nd set only;... (0) Recording Info: Sennheiser... (0) flac16; taper : Joe... (0) flac16; Recording... (0) flac16; Recording... (0) flac16; Master... (0) flac24; Master... (0) flac24; Set 2... (2) flac24; Recording... (0) flac16; Recording... (0) flac24; Recording... (0) flac16; Set 2 Source... (0)
Date User Comment