Browse Collections Artists Sources   Search Dates

Add Show    List Management    Help


Grateful Dead 04/03/87
The Centrum, Worcester, MA
Comments Add Comment    Source Collectors    Add to Collection    Add to Want List    History
Source # 141283 Other Sources
Entered by Matt Vernon
Checksums ffp , flac-md5
Disc Counts 0 / 0
Media Size
Date Circulated
Date Added
03/06/2018
03/06/2018
Source Summary flac24; Recording Info: Ray Ackerman's Master Audience Cassettes; 2 x AudioTechnica AT835 mics + 1 x AKG D12E center fill > Yamaha mixer > Sony TC-D5 Transfer Info: Master Cassettes (Sony TCK71) > Grace Design Lunatec V3 (Oade modified) > M-Audio MicroTrack II (wav 24-bit/96k) > WaveLab 5 (24/96) > Adobe Audition 3.0 (24/96) > TLH flac2496 
  Archive
Source Information - Download Text | Download Zip
Grateful Dead
The Centrum
Worcester, MA
Friday  April 3, 1987

Recording Info:
Ray Ackerman's Master Audience Cassettes; 2 x AudioTechnica AT835 mics + 1 x AKG D12E center fill > Yamaha mixer > Sony TC-D5

Transfer Info:
Master Cassettes (Sony TCK71) > Grace Design Lunatec V3 (Oade modified) > M-Audio MicroTrack II (wav 24-bit/96k) > WaveLab 5 (24/96) > Adobe Audition 3.0 (24/96) > TLH flac2496


Notes:
- Thanks to Ray Ackerman for the master cassette source and transfer
- Thanks to Charlie Miller for coordinating this effort
- Thanks to the folks responsible for the shnid89432 Nakamichi 300 source which supplies a 0:01.8 patch in "Let It Grow"
- Thanks to the folks responsible for the shnid99165 Nakamichi 700 source which supplies a 0:58 patch in "Space"
- Other One space included in "The Other One"
- Transitions smoothed

Mastered by Scott Clugston
March 5, 2018

Set One:
s1 t01 - Hell In A Bucket >
s1 t02 - Sugaree
s1 t03 - C C Rider
s1 t04 - It Must Have Been The Roses
s1 t05 - It's All Over Now
s1 t06 - Big Railroad Blues
s1 t07 - Let It Grow >
s1 t08 - Don't Ease Me In

Set Two:
s2 t01 - China Cat Sunflower >
s2 t02 - I Know You Rider
s2 t03 - Man Smart (Woman Smarter)>
s2 t04 - Crazy Fingers >
s2 t05 - Samson And Delilah >
s2 t06 - Drums >
s2 t07 - Space >
s2 t08 - The Other One >
s2 t09 - Wharf Rat >
s2 t10 - Throwing Stones >
s2 t11 - Not Fade Away
Encore:
s2 t12 - U.S. Blues



    length     expanded size    cdr  WAVE problems  fmt   ratio  filename
     5:57.147     205716524 B   cxx   --   ---xx   flac  0.6421  gd87-04-03 s1 t01 Hell In A Bucket.flac
     8:49.613     305057324 B   cxx   --   ---xx   flac  0.6371  gd87-04-03 s1 t02 Sugaree.flac
     8:12.840     283875884 B   cxx   --   ---xx   flac  0.6355  gd87-04-03 s1 t03 CC Rider.flac
     7:12.733     249254444 B   cxx   --   ---xx   flac  0.6215  gd87-04-03 s1 t04 It Must Have Been The Roses.flac
     7:38.453     264069164 B   cxx   --   ---xx   flac  0.6450  gd87-04-03 s1 t05 It's All Over Now.flac
     4:44.013     163591724 B   cxx   --   ---xx   flac  0.6422  gd87-04-03 s1 t06 Big Railroad Blues.flac
    11:53.040     410711084 B   cxx   --   ---xx   flac  0.6457  gd87-04-03 s1 t07 Let It Grow.flac
     3:22.428     116598368 B   cxx   --   ---xx   flac  0.6534  gd87-04-03 s1 t08 Don't Ease Me In.flac
     5:44.107     198205484 B   cxx   --   ---xx   flac  0.6392  gd87-04-03 s2 t01 China Cat Sunflower.flac
     5:25.107     187261484 B   cxx   --   ---xx   flac  0.6432  gd87-04-03 s2 t02 I Know You Rider.flac
     6:27.187     223019564 B   cxx   --   ---xx   flac  0.6356  gd87-04-03 s2 t03 Man Smart (Woman Smarter).flac
     9:05.960     314473004 B   cxx   --   ---xx   flac  0.6270  gd87-04-03 s2 t04 Crazy Fingers.flac
     6:19.280     218465324 B   cxx   --   ---xx   flac  0.6433  gd87-04-03 s2 t05 Samson & Delilah.flac
     4:34.280     157985324 B   cxx   --   ---xx   flac  0.6203  gd87-04-03 s2 t06 Drums.flac
     3:40.373     126935084 B   cxx   --   ---xx   flac  0.5908  gd87-04-03 s2 t07 Space.flac
     7:01.667     242880044 B   cxx   --   ---xx   flac  0.6344  gd87-04-03 s2 t08 The Other One.flac
     8:11.373     283031084 B   cxx   --   ---xx   flac  0.6292  gd87-04-03 s2 t09 Wharf Rat.flac
     8:05.387     279582764 B   cxx   --   ---xx   flac  0.6433  gd87-04-03 s2 t10 Throwing Stones.flac
     5:37.413     194350124 B   cxx   --   ---xx   flac  0.6335  gd87-04-03 s2 t11 Not Fade Away.flac
     5:37.432     194360714 B   cxx   --   ---xx   flac  0.6426  gd87-04-03 s2 t12 US Blues.flac
   133:39.833    4619424514 B                            0.6360  (20 files)


Show Checksums
ffp
gd87-04-03 s1 t01 Hell In A Bucket.flac:5f2f9592c00bc09582c36504a554938e
gd87-04-03 s1 t02 Sugaree.flac:f7335102cd80af67a809b29af01f0518
gd87-04-03 s1 t03 CC Rider.flac:9b81c6c045e1fc70351b5d4f9c7fb7d2
gd87-04-03 s1 t04 It Must Have Been The Roses.flac:b11aff6e45b4847ae455f08ce0e1a47f
gd87-04-03 s1 t05 It's All Over Now.flac:75f7d6a0244308e87641bd7eef010fb7
gd87-04-03 s1 t06 Big Railroad Blues.flac:2940bd28dcf62326a0bbb9b6f1715e70
gd87-04-03 s1 t07 Let It Grow.flac:379157e9f0fa4a79eaa9268d41c1776e
gd87-04-03 s1 t08 Don't Ease Me In.flac:ce7666865f324edfcd3d12e6a17626d1
gd87-04-03 s2 t01 China Cat Sunflower.flac:3ebb2d1e661e4526ca7439ec94fb287e
gd87-04-03 s2 t02 I Know You Rider.flac:971e915e42be93129f702e7ba2a82065
gd87-04-03 s2 t03 Man Smart (Woman Smarter).flac:60af741d3fe88fff9bd380042f1fc560
gd87-04-03 s2 t04 Crazy Fingers.flac:0263c8b5bfa54a1ccc6eaa64816efc06
gd87-04-03 s2 t05 Samson & Delilah.flac:b1957194831e42799a6b3e8ca8c0c282
gd87-04-03 s2 t06 Drums.flac:02ffe794e27a30a49442c601e527316f
gd87-04-03 s2 t07 Space.flac:a4807088b4813599967c6da57ec8a02d
gd87-04-03 s2 t08 The Other One.flac:78e47805335e846bf91f983ac1083240
gd87-04-03 s2 t09 Wharf Rat.flac:6c97fef799923c8fcd67cbfe06ac21ce
gd87-04-03 s2 t10 Throwing Stones.flac:a13f3160235e3ba17a4a06772e90c077
gd87-04-03 s2 t11 Not Fade Away.flac:e3d27a7fd024ab01ecd73e91419a657d
gd87-04-03 s2 t12 US Blues.flac:a42830c95f79c7cc283e2f33c9df0ffe
flac-md5
186a7f93b8d22e0793abd8c9d4d84469 *gd87-04-03 s1 t01 Hell In A Bucket.flac
9f1e88eb1d14a3d60b21ea1c9133f6fd *gd87-04-03 s1 t02 Sugaree.flac
75cbb40b06e39c07f73b6f4b8eebebc3 *gd87-04-03 s1 t03 CC Rider.flac
5316a456c400403508d13c70b0a55218 *gd87-04-03 s1 t04 It Must Have Been The Roses.flac
8a28861d117cabcb363b8c40bb425756 *gd87-04-03 s1 t05 It's All Over Now.flac
88c56a2e3c22354ec521a6da7b29bf16 *gd87-04-03 s1 t06 Big Railroad Blues.flac
970a2c584facedba89865d7a98ee1d28 *gd87-04-03 s1 t07 Let It Grow.flac
356b9d393b7949785a9b0d021acc73b7 *gd87-04-03 s1 t08 Don't Ease Me In.flac
48b6fadf4e71f841fcf8dc6aebef5155 *gd87-04-03 s2 t01 China Cat Sunflower.flac
d497b26a6281fa366d2527091e9811d0 *gd87-04-03 s2 t02 I Know You Rider.flac
fce6d38ec70299e7d4d7f1b836f2601c *gd87-04-03 s2 t03 Man Smart (Woman Smarter).flac
148f61aec8b7cb04b20ef993c7160909 *gd87-04-03 s2 t04 Crazy Fingers.flac
dd7e2af200283f2232333b43db9bb6aa *gd87-04-03 s2 t05 Samson & Delilah.flac
19f3e18e786cf919d8106bce5376cf3f *gd87-04-03 s2 t06 Drums.flac
763130bb38432841bb683d7d7058d5fc *gd87-04-03 s2 t07 Space.flac
25b54e10fe5614791bf6f5bc0e763ff8 *gd87-04-03 s2 t08 The Other One.flac
89eec485e6da4d3acb91bbd544027656 *gd87-04-03 s2 t09 Wharf Rat.flac
018c7b21377479d12e89ab4345823420 *gd87-04-03 s2 t10 Throwing Stones.flac
8fe2e23ab349e76783eed75d9f38023c *gd87-04-03 s2 t11 Not Fade Away.flac
60f1c0924824606b3bbc013d61aa205b *gd87-04-03 s2 t12 US Blues.flac

Comments
Add Comment
Other Sources (comments)
2nd set only;... (0) Recording Info: Sennheiser... (0) flac16; taper : Joe... (0) flac16; Recording... (0) flac16; Recording... (0) flac16; Master... (0) flac24; Master... (0) flac24; Set 2... (2) flac24; Recording... (0) flac16; Recording... (0) flac16; Recording... (0) flac16; Set 2 Source... (0)
Date User Comment