Browse Collections Artists Sources   Search Dates

Add Show    List Management    Help


Grateful Dead 03/19/73
Nassau Veterans Memorial Coliseum, Uniondale, NY
Comments Add Comment    Source Collectors    Add to Collection    Add to Want List    History
Source # 141298 Other Sources
Entered by Matt Vernon
Checksums orig-ffp , ffp , flac-md5
Disc Counts 0 / 0
Media Size
Date Circulated
Date Added

03/08/2018
Source Summary flac24/96 Recording Info: SBD > Master Reels > Dat (16-bit/44.1k) > upsampled to 24-bit/96k; Mastering Info: WAV > Samplitude Pro X3 Suite > FLAC/24; Master Reel Transferred by Rob Eaton; All Mastering By Charlie Miller; the original version of this source had a 2 second dropout in thrack 16 (Playing In The Band) 
  Archive
Source Information - Download Text | Download Zip
Grateful Dead - March 19, 1973
Nassau Coliseum - Uniondale, NY

Recording Info:
SBD > Master Reels > Dat (16-bit/44.1k) > upsampled to 24-bit/96k

Mastering Info:
WAV > Samplitude Pro X3 Suite > FLAC/24
(1 DVD FLAC)

Master Reel Transferred by Rob Eaton
All Mastering By Charlie Miller
[email protected]
March 9, 2018

Patch Info:
Sony Mics > Cassette Master > FLAC (shnid=97417) supplies:
Tennessee Jed (1:32 - 1:56)

Notes:
-- Nobody's Fault But Mine jam in Truckin'
-- Two sets of masters were used to make this show complete
-- Thanks to Rob Eaton, Matt Smith and Dick Latvala for the recordings
-- There's a 2 second patch in PITB (13:09 - 13:13) patched with shnid=123987

Set 1:
01 - Introduction
02 - Promised Land
03 - He's Gone
04 - Mexicali Blues
05 - They Love Each Other
06 - Looks Like Rain
07 - Wave That Flag
08 - Box Of Rain
09 - The Race Is On
10 - Row Jimmy
11 - El Paso
12 - China Cat Sunflower >
13 - I Know You Rider
14 - Around And Around
15 - Tennessee Jed
16 - Playing In The Band

Set 2:
17 - Loose Lucy
18 - Me And My Uncle
19 - Brown Eyed Women
20 - Big River
21 - Mississippi Half-Step Uptown Toodeloo >
22 - Stella Blue >
23 - Jack Straw
24 - Truckin' >
25 - Drums >
26 - The Other One >
27 - Eyes Of The World >
28 - China Doll
29 - Johnny B. Goode

Encore:
30 - Casey Jones


SHNTOOL OUTPUT:
    length     expanded size    cdr  WAVE problems  fmt   ratio  filename
     0:13.549       7804280 B   cxx   --   ---xx   flac  0.5072  01 Introduction.flac
     3:00.701     104083784 B   cxx   --   ---xx   flac  0.5810  02 Promised Land.flac
    12:17.140     424592756 B   cxx   --   ---xx   flac  0.5544  03 He's Gone.flac
     3:39.780     126593072 B   cxx   --   ---xx   flac  0.5838  04 Mexicali Blues.flac
     6:28.859     223983002 B   cxx   --   ---xx   flac  0.5678  05 They Love Each Other.flac
     7:44.804     267727394 B   cxx   --   ---xx   flac  0.5567  06 Looks Like Rain.flac
     5:46.166     199391624 B   cxx   --   ---xx   flac  0.6034  07 Wave That Flag.flac
     5:07.113     176896880 B   cxx   --   ---xx   flac  0.5876  08 Box Of Rain.flac
     3:06.674     107524202 B   cxx   --   ---xx   flac  0.5895  09 The Race Is On.flac
     8:08.784     281539484 B   cxx   --   ---xx   flac  0.5672  10 Row Jimmy.flac
     4:24.829     152541650 B   cxx   --   ---xx   flac  0.5727  11 El Paso.flac
     7:38.031     263825972 B   cxx   --   ---xx   flac  0.5923  12 China Cat Sunflower.flac
     5:46.252     199441178 B   cxx   --   ---xx   flac  0.5816  13 I Know You Rider.flac
     4:43.046     163034762 B   cxx   --   ---xx   flac  0.5879  14 Around And Around.flac
     8:04.016     278793482 B   cxx   --   ---xx   flac  0.5836  15 Tennessee Jed.flac
    15:49.567     546950702 B   cxx   --   ---xx   flac  0.5980  16 Playing In The Band.flac
     7:07.025     245966390 B   cxx   --   ---xx   flac  0.5873  17 Loose Lucy.flac
     3:04.826     106459670 B   cxx   --   ---xx   flac  0.5907  18 Me And My Uncle.flac
     5:11.818     179607410 B   cxx   --   ---xx   flac  0.5790  19 Brown Eyed Women.flac
     4:15.922     147411014 B   cxx   --   ---xx   flac  0.5950  20 Big River.flac
     7:35.403     262312112 B   cxx   --   ---xx   flac  0.5861  21 Mississippi Half-Step Uptown Toodeloo.flac
     7:40.051     264989660 B   cxx   --   ---xx   flac  0.5415  22 Stella Blue.flac
     5:08.436     177659024 B   cxx   --   ---xx   flac  0.5785  23 Jack Straw.flac
    12:34.098     434360732 B   cxx   --   ---xx   flac  0.5910  24 Truckin'.flac
     2:17.463      79178672 B   cxx   --   ---xx   flac  0.5481  25 Drums.flac
    11:49.316     408565808 B   cxx   --   ---xx   flac  0.5939  26 The Other One.flac
    16:49.814     581653154 B   cxx   --   ---xx   flac  0.5845  27 Eyes Of The World.flac
     7:37.645     263603372 B   cxx   --   ---xx   flac  0.5487  28 China Doll.flac
     4:03.874     140471486 B   cxx   --   ---xx   flac  0.6101  29 Johnny B Goode.flac
     6:26.496     222621950 B   cxx   --   ---xx   flac  0.5836  30 Casey Jones.flac
   203:41.499    7039584678 B                            0.5802  (30 files)



Show Checksums
orig-ffp
01 Introduction.flac:578fb8a7f87f94143b1eddcecb3464b9
02 Promised Land.flac:a6ff117e701614eb0dab7d8800ae5790
03 He's Gone.flac:346603ad4f76abe37483662627b0acc0
04 Mexicali Blues.flac:43d419e7d5cdde2a468556dc0f49c975
05 They Love Each Other.flac:b1942a7a2273e3c134d673f9d3b9ed89
06 Looks Like Rain.flac:f829bac1717f472d12ef4499a43c6803
07 Wave That Flag.flac:06a5a378b27a1729beccc02a05fbc345
08 Box Of Rain.flac:79a90545e2a33586921e17dab95891a2
09 The Race Is On.flac:3957e303f2cef63b46ddb1e82a0e5feb
10 Row Jimmy.flac:2678b7aafb71d17ae8ef9a0370752022
11 El Paso.flac:215510804027250fdba30f4f7918ba07
12 China Cat Sunflower.flac:9455c5d5c379029e5166122d8758d160
13 I Know You Rider.flac:b9b90db93fc91133c924c599fa541aa7
14 Around And Around.flac:2ee6155733e6303a3912d9236b8e965d
15 Tennessee Jed.flac:d787935292184bad7f1d00cb10e1254d
16 Playing In The Band.flac:6b1f3b286e37fa818f744db1994add36
17 Loose Lucy.flac:9d9407a35f6489dab7ef0f216f591656
18 Me And My Uncle.flac:fba866e078f435992b718d82aa7ec7f0
19 Brown Eyed Women.flac:b34aff24319095c23955a33b6bc86103
20 Big River.flac:d97b28c9dcdff64424a03fe8800bc5f5
21 Mississippi Half-Step Uptown Toodeloo.flac:22ec7d4e282a36f3fcacd01c1b2012aa
22 Stella Blue.flac:acb00185d2af132b51dfc94574fc05ca
23 Jack Straw.flac:77acba8b1e75afdc934dcdde8b0e1998
24 Truckin'.flac:7c1c23df1665437af87fe7a7a82cb01d
25 Drums.flac:9d5e3f0dfe80e394be3c68aa46f68d87
26 The Other One.flac:3a23bbdc87b262f924d2405d2ca0fd19
27 Eyes Of The World.flac:9b6118c760918522dbb6a72e1b31fa42
28 China Doll.flac:51f642cbdcff1a6464ae15bf843b47b5
29 Johnny B Goode.flac:de3685c2df746c2c163fe854505c30e9
30 Casey Jones.flac:244d1497807bf8a3b706962cc9251773
ffp
01 Introduction.flac:578fb8a7f87f94143b1eddcecb3464b9
02 Promised Land.flac:a6ff117e701614eb0dab7d8800ae5790
03 He's Gone.flac:346603ad4f76abe37483662627b0acc0
04 Mexicali Blues.flac:43d419e7d5cdde2a468556dc0f49c975
05 They Love Each Other.flac:b1942a7a2273e3c134d673f9d3b9ed89
06 Looks Like Rain.flac:f829bac1717f472d12ef4499a43c6803
07 Wave That Flag.flac:06a5a378b27a1729beccc02a05fbc345
08 Box Of Rain.flac:79a90545e2a33586921e17dab95891a2
09 The Race Is On.flac:3957e303f2cef63b46ddb1e82a0e5feb
10 Row Jimmy.flac:2678b7aafb71d17ae8ef9a0370752022
11 El Paso.flac:215510804027250fdba30f4f7918ba07
12 China Cat Sunflower.flac:9455c5d5c379029e5166122d8758d160
13 I Know You Rider.flac:b9b90db93fc91133c924c599fa541aa7
14 Around And Around.flac:2ee6155733e6303a3912d9236b8e965d
15 Tennessee Jed.flac:d787935292184bad7f1d00cb10e1254d
16 Playing In The Band.flac:ef54860ec4f47c4ac98b2c876d9836f0
17 Loose Lucy.flac:9d9407a35f6489dab7ef0f216f591656
18 Me And My Uncle.flac:fba866e078f435992b718d82aa7ec7f0
19 Brown Eyed Women.flac:b34aff24319095c23955a33b6bc86103
20 Big River.flac:d97b28c9dcdff64424a03fe8800bc5f5
21 Mississippi Half-Step Uptown Toodeloo.flac:22ec7d4e282a36f3fcacd01c1b2012aa
22 Stella Blue.flac:acb00185d2af132b51dfc94574fc05ca
23 Jack Straw.flac:77acba8b1e75afdc934dcdde8b0e1998
24 Truckin'.flac:7c1c23df1665437af87fe7a7a82cb01d
25 Drums.flac:9d5e3f0dfe80e394be3c68aa46f68d87
26 The Other One.flac:3a23bbdc87b262f924d2405d2ca0fd19
27 Eyes Of The World.flac:9b6118c760918522dbb6a72e1b31fa42
28 China Doll.flac:51f642cbdcff1a6464ae15bf843b47b5
29 Johnny B Goode.flac:de3685c2df746c2c163fe854505c30e9
30 Casey Jones.flac:244d1497807bf8a3b706962cc9251773
flac-md5
8ff84507453276d3a8148a0d7bed9d45 *01 Introduction.flac
e126fb55c5ed7e4132feb0e9861722ed *02 Promised Land.flac
4d9a07bac2df306a616781a60563999f *03 He's Gone.flac
66006a95522f2d3b2e206d8ef7f361e3 *04 Mexicali Blues.flac
5e8d124561f61035a47249bbaf130512 *05 They Love Each Other.flac
721263a62af8f698acb6e13649abf5c0 *06 Looks Like Rain.flac
2376751d09093b7df98108dd4788cf90 *07 Wave That Flag.flac
38ab43c2be33fa89afc15c462ede3d4c *08 Box Of Rain.flac
7290f80d13c645b91ba35a442564af3a *09 The Race Is On.flac
dda527132b26228c70b441bb19a96445 *10 Row Jimmy.flac
7c5d686b8e19433380d487fc67830485 *11 El Paso.flac
7ec622d6c4198d45354019119edefa8f *12 China Cat Sunflower.flac
bb3514405044fc8b9b38d6699c28c7f8 *13 I Know You Rider.flac
0a024be4620fbe710e4b469c5998de0e *14 Around And Around.flac
f229186a4c1fb75d5cd1f2e2978a8aaa *15 Tennessee Jed.flac
e3e318834a6a751b46e4f19aa7260675 *16 Playing In The Band.flac
534adfbae85da53f9747582c228e2230 *17 Loose Lucy.flac
0af84546c9d9686179192823f8a9cced *18 Me And My Uncle.flac
5d41754c0309609f8f28cef68243495a *19 Brown Eyed Women.flac
c4beac11584780196a7ab5a737aca62e *20 Big River.flac
ba10fb334009c04cca5cd7db250f3e30 *21 Mississippi Half-Step Uptown Toodeloo.flac
b8181c6211503141b994d1b4e0f222c1 *22 Stella Blue.flac
c667776dea7b1607e19da61f3af96a50 *23 Jack Straw.flac
bafb93d9b9169a6ddf7ca6d3344dae77 *24 Truckin'.flac
e9303bc5100bd985113f58c0d7ece995 *25 Drums.flac
836235e4d2a3073dee02c4013f4ceaa6 *26 The Other One.flac
984f9fde96509dbe44e40e3b97add712 *27 Eyes Of The World.flac
4908a9afea8551873a810aedc9be3c8e *28 China Doll.flac
36a6b1ccea87b45607e9043cb0d86754 *29 Johnny B Goode.flac
65a20e9e0d751312311446f7aa2b7374 *30 Casey Jones.flac

Comments
Add Comment
Other Sources (comments)
Playin', plus most of set... (6) flac16; Taper Gerry... (0) flac16; Taper: Dan... (0) flac16; Recording... (0) flac16; Recording... (1)
Date User Comment
03/09/2018 [email protected] I forgot to mention that the master reels were dolby decoded
03/10/2018 mvernon the source lineage changed to: SBD > Master Reels > Dat (16-bit/44.1k) > upsampled to 24-bit/96k