Browse Collections Artists Sources   Search Dates

Add Show    List Management    Help


Grateful Dead 07/28/73
Grand Prix Racecourse, Watkins Glen, NY
Comments Add Comment    Source Collectors    Add to Collection    Add to Want List    History
Source # 141307 Other Sources
Entered by Matt Vernon
Checksums ffp , flac-md5
Disc Counts 0 / 0
Media Size
Date Circulated
Date Added
03/09/2018
03/09/2018
Source Summary flac24; Recording Info: SBD > Master Reels > .wav 24-bit/96k (Master Reels transferred by Rob Eaton); Mastering Info: .wav 24-bit/96k > Adobe Audition 3.0 24/96 > TLH > flac2496 
  Archive
Source Information - Download Text | Download Zip
Grateful Dead
Grand Prix Racecourse
Watkins Glen, NY
Saturday July 28, 1973

Recording Info:
SBD > Master Reels > .wav 24-bit/96k (Master Reels transferred by Rob Eaton)

Mastering Info:
.wav 24-bit/96k > Adobe Audition 3.0 24/96 > TLH > flac2496

Notes:
- Thanks to Rob Eaton for both the master reel source and transfer
- Thanks to Charlie Miller for coordinating this effort
- All of the 1st set and most of the 2nd set has been pitch corrected. The 1st set was a mess. As I understand it, the deck was inadvertantly on battery power and it wasn't until after "Here Comes Sunshine" that someone realized that the deck was not plugged in. Consequently, there were serious speed issues, culminating in the "chipmunks on speed" version of "Here Comes Sunshine". What made things even more difficult was the fact that the speed issues were non-linear, requiring the pitch to be adjusted in as little as 0:10 increments, with the speed being both slow, then fast, in a matter of seconds. Just to give an idea of the severity, the raw transfer of "Here Comes Sunshine" (HCS Raw) has been included in this torrent for your listening pleasure.
- Sadly, this copy also exhibits a "static" like scratching noise in parts of "He's Gone" and "Truckin'", which has been minimized as best as possible
- Thanks to audiohead22 for his help with the pitch corrections, as well as the "static" like scratching noise present at the end of "He's Gone" and the beginning of "Truckin'"
- Thanks to the folks responsible for the shnid135381 Sony ECM22p source which supplies the "Intro" and first few notes of "Bertha" (0:43 total), as well as a 0:26 patch in "Eyes Of The World"
- Thanks to the folks responsible for the shnid123407 Candelario source which supplies a 0:24 patch in "Loose Lucy", a 0:27 patch in "Truckin'", as well as a 1:17 patch in "I Know You Rider"
- Thanks to the folks responsible for the shnid14196 source for the FM source which supplies a 0:19 patch in "Here Comes Sunshine" where the speed issues could not be corrected, as well as the tuning and first 0:19 of "Looks Like Rain" (0:32 total)
- Multiple sources were used for patching due to the varying sound qualities/wind noise present on each version, at any given time
- There's a tape flip in "Playin' In The Band" that has been smoothed and not patched. Available patch sources didn't lend themselves as patch material,so it was left alone. It is virtually transparent
- Mix issues during "Bertha"
- Levels were smoothed

Mastered by Scott Clugston
March 9, 2018

Set One:
s1 t01 - Intro
s1 t02 - Bertha
s1 t03 - Beat It On Down The Line
s1 t04 - Brown Eyed Women
s1 t05 - Mexicali Blues
s1 t06 - Box Of Rain
s1 t07 - Here Comes Sunshine
s1 t08 - Looks Like Rain
s1 t09 - Row Jimmy
s1 t10 - tuning
s1 t11 - Jack Straw
s1 t12 - Deal
s1 t13 - Playin'// In The Band

Set Two:
s2 t01 - LooseLucy
s2 t02 - Big River
s2 t03 - He's Gone >
s2 t04 - Truckin' >
         Nobody's Fault But Mine Jam >
s2 t05 - El Paso
s2 t06 - China Cat Sunflower >
s2 t07 - I Know You Rider
s2 t08 - tuning
s2 t09 - Stella Blue
s2 t10 - Eyes Of The World >
s2 t11 - Sugar Magnolia
Encores:
s2 t12 - Sing Me Back Home
[missing] Not Fade Away
[missing] Mountain Jam
[missing] Johnny B. Goode



    length     expanded size    cdr  WAVE problems  fmt   ratio  filename
     0:40.347      23239724 B   cxx   --   ---xx   flac  0.4802  gd73-07-28 s1 t01 Intro.flac
     6:42.440     231805484 B   cxx   --   ---xx   flac  0.5656  gd73-07-28 s1 t02 Bertha.flac
     3:42.507     128163884 B   cxx   --   ---xx   flac  0.5510  gd73-07-28 s1 t03 Beat It On Down The Line.flac
     5:22.400     185702444 B   cxx   --   ---xx   flac  0.5584  gd73-07-28 s1 t04 Brown Eyed Women.flac
     3:32.547     122426924 B   cxx   --   ---xx   flac  0.5843  gd73-07-28 s1 t05 Mexicali Blues.flac
     5:22.507     185763884 B   cxx   --   ---xx   flac  0.5830  gd73-07-28 s1 t06 Box Of Rain.flac
    10:52.173     375651884 B   cxx   --   ---xx   flac  0.5622  gd73-07-28 s1 t07 Here Comes Sunhine.flac
     6:58.400     240998444 B   cxx   --   ---xx   flac  0.5373  gd73-07-28 s1 t08 Looks Like Rain.flac
     8:30.853     294251564 B   cxx   --   ---xx   flac  0.5774  gd73-07-28 s1 t09 Row Jimmy.flac
     1:11.973      41456684 B   cxx   --   ---xx   flac  0.4915  gd73-07-28 s1 t10 Tuning.flac
     4:46.907     165258284 B   cxx   --   ---xx   flac  0.5840  gd73-07-28 s1 t11 Jack Straw.flac
     6:30.547     224954924 B   cxx   --   ---xx   flac  0.5808  gd73-07-28 s1 t12 Deal.flac
    23:40.877     818425178 B   cxx   --   ---xx   flac  0.5818  gd73-07-28 s1 t13 Playin' In The Band.flac
     7:00.840     242403884 B   cxx   --   ---xx   flac  0.5740  gd73-07-28 s2 t01 Loose Lucy.flac
     4:35.987     158968364 B   cxx   --   ---xx   flac  0.5755  gd73-07-28 s2 t02 Big River.flac
    12:38.973     437168684 B   cxx   --   ---xx   flac  0.5479  gd73-07-28 s2 t03 He's Gone.flac
    11:42.933     404889644 B   cxx   --   ---xx   flac  0.5500  gd73-07-28 s2 t04 Truckin'.flac
     4:59.373     172439084 B   cxx   --   ---xx   flac  0.5457  gd73-07-28 s2 t05 El Paso.flac
     8:22.893     289666604 B   cxx   --   ---xx   flac  0.5831  gd73-07-28 s2 t06 China Cat Sunflower.flac
     5:34.653     192760364 B   cxx   --   ---xx   flac  0.5807  gd73-07-28 s2 t07 I Know You Rider.flac
     2:46.493      95900204 B   cxx   --   ---xx   flac  0.4526  gd73-07-28 s2 t08 Tuning.flac
     7:52.973     272432684 B   cxx   --   ---xx   flac  0.5325  gd73-07-28 s2 t09 Stella Blue.flac
    20:23.440     704701484 B   cxx   --   ---xx   flac  0.5841  gd73-07-28 s2 t10 Eyes Of The World.flac
    10:20.880     357626924 B   cxx   --   ---xx   flac  0.5702  gd73-07-28 s2 t11 Sugar Magnolia.flac
     9:29.668     328129016 B   cxx   --   ---xx   flac  0.5185  gd73-07-28 s2 t12 Sing Me Back Home.flac
   193:43.585    6695186246 B                            0.5635  (25 files)


Show Checksums
ffp
gd73-07-28 s1 t01 Intro.flac:89fbfffabfe16e954325de4ea031386c
gd73-07-28 s1 t02 Bertha.flac:058ca1690fa64656faa92dd4ead74867
gd73-07-28 s1 t03 Beat It On Down The Line.flac:2da302710fce04c5ac501efa295faf5c
gd73-07-28 s1 t04 Brown Eyed Women.flac:ce9067bdd14ae5a5047227f7a434fba9
gd73-07-28 s1 t05 Mexicali Blues.flac:9595edaaea65a3b1fa299fce2d0efd75
gd73-07-28 s1 t06 Box Of Rain.flac:60a3ab7fff423a78f00d6dce006e218a
gd73-07-28 s1 t07 Here Comes Sunhine.flac:75f04ac0ab320675ed2a446c23d2f958
gd73-07-28 s1 t08 Looks Like Rain.flac:2eaac8cc278144dcf2a82eaa348547bb
gd73-07-28 s1 t09 Row Jimmy.flac:54fa45379240703dab696a85bea55706
gd73-07-28 s1 t10 Tuning.flac:80a5acfadfbbef351ba2446de7f44e74
gd73-07-28 s1 t11 Jack Straw.flac:cdca883615aca80b0f513c9baa6aa45c
gd73-07-28 s1 t12 Deal.flac:7d8c3cbd78c012c48b6d2726d10e90e3
gd73-07-28 s1 t13 Playin' In The Band.flac:355a5f0167df560ca5536eda65e84d8b
gd73-07-28 s2 t01 Loose Lucy.flac:4d852ecab09907f95362e7762f9193e6
gd73-07-28 s2 t02 Big River.flac:00c4bc01af3aa76f3bc818a678a08f56
gd73-07-28 s2 t03 He's Gone.flac:87feff4d1cf44b4a6a8c51a170991ba9
gd73-07-28 s2 t04 Truckin'.flac:ede1051e49d4c25430a0ead5d8cd1479
gd73-07-28 s2 t05 El Paso.flac:815dac410f03ee9bd8a043ce527bf63d
gd73-07-28 s2 t06 China Cat Sunflower.flac:4bb6e38c3da43222c16db062a4c7a537
gd73-07-28 s2 t07 I Know You Rider.flac:09ba7b70a489282a8236d39b9010e6c7
gd73-07-28 s2 t08 Tuning.flac:e15800daacf88a4d642cfe799dbad597
gd73-07-28 s2 t09 Stella Blue.flac:bc322557d82da7520fdcd22e5b0fb0ae
gd73-07-28 s2 t10 Eyes Of The World.flac:28160ed1ffdcc92daad7d114b15edfb0
gd73-07-28 s2 t11 Sugar Magnolia.flac:67f9b76067f77124c658436d50d34f8e
gd73-07-28 s2 t12 Sing Me Back Home.flac:8dec14c146d7f4b4cec5e394c196d8c4
flac-md5
d729dc5845089f3a4fab4ba438f319cc *gd73-07-28 s1 t01 Intro.flac
7846782be4c31d7f1c48beb9e53b9986 *gd73-07-28 s1 t02 Bertha.flac
5f77e2b4bd04c1f70654807e2df88d52 *gd73-07-28 s1 t03 Beat It On Down The Line.flac
7206f60468da045feb9aac52c0b2d063 *gd73-07-28 s1 t04 Brown Eyed Women.flac
69750b44cbb83581e37deb145edc0426 *gd73-07-28 s1 t05 Mexicali Blues.flac
2ee491819394acb1fc6866229b7b2137 *gd73-07-28 s1 t06 Box Of Rain.flac
5eb3be3510b17e34d74b201771ef9315 *gd73-07-28 s1 t07 Here Comes Sunhine.flac
b866e747d4ea170de745a38b5057ceda *gd73-07-28 s1 t08 Looks Like Rain.flac
792a8454655d00ad7bfe5239055a646d *gd73-07-28 s1 t09 Row Jimmy.flac
e05fe8499d02c3534cbe296e132b82be *gd73-07-28 s1 t10 Tuning.flac
ca027c6133a4a73c2e58d3b93108e9f5 *gd73-07-28 s1 t11 Jack Straw.flac
9fb0f314cc7e5bc62c93b9b75c052212 *gd73-07-28 s1 t12 Deal.flac
f0b30d4560a0bb3064ee73f6b886966c *gd73-07-28 s1 t13 Playin' In The Band.flac
c6571725eaa50c0ca7257d212bc4565e *gd73-07-28 s2 t01 Loose Lucy.flac
ce4091c4a7652bb74b60450843898e06 *gd73-07-28 s2 t02 Big River.flac
f1a787e9680d220a23197ff1a47a57e4 *gd73-07-28 s2 t03 He's Gone.flac
a473c36b3751b188028062a26203306c *gd73-07-28 s2 t04 Truckin'.flac
eb6c8774d218a8007e0955a28d50e455 *gd73-07-28 s2 t05 El Paso.flac
0c025880031cec48e2841482d3bc6016 *gd73-07-28 s2 t06 China Cat Sunflower.flac
9a577a9349cd503cb80644f092e949b9 *gd73-07-28 s2 t07 I Know You Rider.flac
bc8ebd560551b4eaf568f8983a17086c *gd73-07-28 s2 t08 Tuning.flac
bae56d1f6a6f617fb1cabeed911ac273 *gd73-07-28 s2 t09 Stella Blue.flac
f84ef79c9846a3483c33333d89da8fb7 *gd73-07-28 s2 t10 Eyes Of The World.flac
8bd579597ee1adac6fa57b46c8bc52b0 *gd73-07-28 s2 t11 Sugar Magnolia.flac
f0f08d7320c7a71219796c9d9fd1bc85 *gd73-07-28 s2 t12 Sing Me Back Home.flac

Comments
Add Comment
Other Sources (comments)
no regular info file... (6) Uher mic > Uher 4000 Report... (0) Soundboard Master... (5) flac16; taped by... (2) flac24; AudMR >... (0) flac16: AudMR >... (0) flac24; source: aud... (0) flac16; source: aud... (0) flac16; Source:... (0) flac16; Recording... (0) flac16; Analog... (0)
Date User Comment