Browse Collections Artists Sources   Search Dates

Add Show    List Management    Help


Grateful Dead 03/19/73
Nassau Veterans Memorial Coliseum, Uniondale, NY
Comments Add Comment    Source Collectors    Add to Collection    Add to Want List    History
Source # 141309 Other Sources
Entered by Matt Vernon
Checksums ffp , flac-md5
Disc Counts 0 / 0
Media Size Compressed: 1.13 GB (1208578048 bytes)
Date Circulated
Date Added
03/10/2018
03/10/2018
Source Summary flac16; Recording Info: SBD > Master Reels > Dat (16-bit/44.1k) > upsampled to 24-bit/96k; Mastering Info: WAV > Samplitude Pro X3 Suite > FLAC/24; Master Reel Transferred by Rob Eaton; All Mastering By Charlie Miller; the original version of this source had a 2 second dropout in thrack 16 (Playing In The Band) 
  Archive
Source Information - Download Text | Download Zip
Grateful Dead - March 19, 1973
Nassau Coliseum - Uniondale, NY

Recording Info:
SBD > Master Reels > Dat (16-bit/44.1k) > upsampled to 24-bit/96k

Mastering Info:
WAV > Samplitude Pro X3 Suite > FLAC/24
(1 DVD FLAC)

Master Reel Transferred by Rob Eaton
All Mastering By Charlie Miller
[email protected]
March 9, 2018

Patch Info:
Sony Mics > Cassette Master > FLAC (shnid=97417) supplies:
Tennessee Jed (1:32 - 1:56)

Notes:
-- Nobody's Fault But Mine jam in Truckin'
-- Two sets of masters were used to make this show complete
-- Thanks to Rob Eaton, Matt Smith and Dick Latvala for the recordings
-- There's a 2 second patch in PITB (13:09 - 13:13) patched with shnid=123987
-- All reels were Dolby decoded
-- This file set is 16 bit

Set 1:
01 - Introduction
02 - Promised Land
03 - He's Gone
04 - Mexicali Blues
05 - They Love Each Other
06 - Looks Like Rain
07 - Wave That Flag
08 - Box Of Rain
09 - The Race Is On
10 - Row Jimmy
11 - El Paso
12 - China Cat Sunflower >
13 - I Know You Rider
14 - Around And Around
15 - Tennessee Jed
16 - Playing In The Band

Set 2:
17 - Loose Lucy
18 - Me And My Uncle
19 - Brown Eyed Women
20 - Big River
21 - Mississippi Half-Step Uptown Toodeloo >
22 - Stella Blue >
23 - Jack Straw
24 - Truckin' >
25 - Drums >
26 - The Other One >
27 - Eyes Of The World >
28 - China Doll
29 - Johnny B. Goode

Encore:
30 - Casey Jones


SHNTOOL OUTPUT:
    length     expanded size    cdr  WAVE problems  fmt   ratio  filename
     0:13.41        2389676 B   ---   --   ---xx   flac  0.4693  01 Introduction.flac
     3:00.52       31874348 B   ---   --   ---xx   flac  0.5448  02 Promised Land.flac
    12:17.11      130032716 B   ---   --   ---xx   flac  0.5215  03 He's Gone.flac
     3:39.58       38768060 B   ---   --   ---xx   flac  0.5734  04 Mexicali Blues.flac
     6:28.65       68596124 B   ---   --   ---xx   flac  0.5493  05 They Love Each Other.flac
     7:44.60       81990764 B   ---   --   ---xx   flac  0.5257  06 Looks Like Rain.flac
     5:46.12       61062668 B   ---   --   ---xx   flac  0.6002  07 Wave That Flag.flac
     5:07.09       54176012 B   ---   --   ---xx   flac  0.5797  08 Box Of Rain.flac
     3:06.50       32928044 B   ---   --   ---xx   flac  0.5764  09 The Race Is On.flac
     8:08.59       86222012 B   ---   --   ---xx   flac  0.5354  10 Row Jimmy.flac
     4:24.62       46715468 B   ---   --   ---xx   flac  0.5521  11 El Paso.flac
     7:38.03       80798300 B   ---   --   ---xx   flac  0.5778  12 China Cat Sunflower.flac
     5:46.19       61079132 B   ---   --   ---xx   flac  0.5634  13 I Know You Rider.flac
     4:43.03       49928300 B   ---   --   ---xx   flac  0.5708  14 Around And Around.flac
     8:04.01       85379996 B   ---   --   ---xx   flac  0.5656  15 Tennessee Jed.flac
    15:49.43      167504780 B   ---   --   ---xx   flac  0.5870  16 Playing In The Band.flac
     7:07.02       75327548 B   ---   --   ---xx   flac  0.5670  17 Loose Lucy.flac
     3:04.62       32603468 B   ---   --   ---xx   flac  0.5740  18 Me And My Uncle.flac
     5:11.61       55003916 B   ---   --   ---xx   flac  0.5547  19 Brown Eyed Women.flac
     4:15.69       45144332 B   ---   --   ---xx   flac  0.5760  20 Big River.flac
     7:35.30       80332604 B   ---   --   ---xx   flac  0.5645  21 Mississippi Half-Step Uptown Toodeloo.flac
     7:40.04       81153452 B   ---   --   ---xx   flac  0.4975  22 Stella Blue.flac
     5:08.33       54408860 B   ---   --   ---xx   flac  0.5488  23 Jack Straw.flac
    12:34.07      133022108 B   ---   --   ---xx   flac  0.5763  24 Truckin'.flac
     2:17.35       24249164 B   ---   --   ---xx   flac  0.5103  25 Drums.flac
    11:49.24      125124092 B   ---   --   ---xx   flac  0.5791  26 The Other One.flac
    16:49.61      178131116 B   ---   --   ---xx   flac  0.5651  27 Eyes Of The World.flac
     7:37.48       80727740 B   ---   --   ---xx   flac  0.5318  28 China Doll.flac
     4:03.66       43020476 B   ---   --   ---xx   flac  0.6063  29 Johnny B Goode.flac
     6:26.38       68179820 B   ---   --   ---xx   flac  0.5767  30 Casey Jones.flac
   203:41.38     2155875096 B                            0.5606  (30 files)



Show Checksums
ffp
01 Introduction.flac:446d57931ee9d071d3538a6d407460c6
02 Promised Land.flac:6562fb981e57bec5e78dc9080268195d
03 He's Gone.flac:49b522c017a6382fd08be4ae36db5ae5
04 Mexicali Blues.flac:389e8c2f7e4695efc39cb78ecb8794a4
05 They Love Each Other.flac:489fd6618c2c45acb3b2247b3d1ee8e3
06 Looks Like Rain.flac:2485c7e06c5a1d0844470f2c97038f2c
07 Wave That Flag.flac:d0cd2dd46f1a58b303ec4656758be513
08 Box Of Rain.flac:8c52e60d66a834a6d52895574b84a9ed
09 The Race Is On.flac:5b170ef834f5c8bfc18f78f24fa9269b
10 Row Jimmy.flac:bca7f4c796379c2f327c68ef5bf06567
11 El Paso.flac:9ac00972319cf9557955b230bcdc5346
12 China Cat Sunflower.flac:0ee5d4a05845100f14aba7fd5f4d2ae7
13 I Know You Rider.flac:5e2576f6f99ed53d08c4a59edea640f3
14 Around And Around.flac:fef2a5e2a2a2b14fce553e184a20fb05
15 Tennessee Jed.flac:e53b94baf734d69f94f1433ca81fcb4d
16 Playing In The Band.flac:dd8bb5ceef59d7b05d12befc3e8041a7
17 Loose Lucy.flac:8304648e5ae30d57516971125b799acb
18 Me And My Uncle.flac:f2dcbd2ce46c72697f47dd57e769c1d3
19 Brown Eyed Women.flac:7b9f43eff4e5bfb03cf4f68d21f47b6f
20 Big River.flac:d32add236561eb1409b7e2184b95e62a
21 Mississippi Half-Step Uptown Toodeloo.flac:554f52b4536891b3e87cf5444f037666
22 Stella Blue.flac:64831acfe4a417dbe4f7227ea4b1067a
23 Jack Straw.flac:6d0432ea4b62c5d1f676da4d1cd2d267
24 Truckin'.flac:582ef7c04c70382e7ffe53429d2d88d5
25 Drums.flac:3aeb8e3add8ec771c7de9c577e0d9a32
26 The Other One.flac:00268c17589046a45818762916692cee
27 Eyes Of The World.flac:cc5d511718005c4ee6e0fd16386111bf
28 China Doll.flac:e41edca9803ba90f7b63db2954b70c6e
29 Johnny B Goode.flac:f7b98dd5a2a3ed98f32debcc372353e8
30 Casey Jones.flac:3b10394dcdfed0350a9386644579da52
flac-md5
0a7522a9c4230f3ff84910a1c53083eb *01 Introduction.flac
cb275fcb9d9141826d1a37f40df6dda5 *02 Promised Land.flac
7e395f072a49512a5dcba00ed107cc81 *03 He's Gone.flac
915abcdd58cf28290002c84bc6878328 *04 Mexicali Blues.flac
d57ac0a89cc597defd613a47c64d3ef1 *05 They Love Each Other.flac
24fc98f114c7fe6ba6a6fff4a760d686 *06 Looks Like Rain.flac
81b5270ebcf7987fa56217541b83f41f *07 Wave That Flag.flac
89ce60b721fad52f7bbc119f2d672479 *08 Box Of Rain.flac
1d4dd7bd077c04cdb10cf5079508a62f *09 The Race Is On.flac
595c4e8a393e5d4c965d83e8bb2e2083 *10 Row Jimmy.flac
0d5df36dc82e85151a618b18b7678f7c *11 El Paso.flac
5b0b663d5972713503c814589eb96150 *12 China Cat Sunflower.flac
bde6574d32198e4b9b6a0ba444a1c64d *13 I Know You Rider.flac
905cfecee9750f70de3f83827e564495 *14 Around And Around.flac
c05bfe7033bbea87fccee3ad21350d18 *15 Tennessee Jed.flac
ec45692afbde74a4ac62d59f331d21d7 *16 Playing In The Band.flac
cea4115f83e65301a78ef78700c8a68b *17 Loose Lucy.flac
375b784d45fe1d9c2faac09366fa6627 *18 Me And My Uncle.flac
85f033e9dde769d9745a0cf68352873f *19 Brown Eyed Women.flac
83c2d356dcf1eb3d96d8206f73c5eb5d *20 Big River.flac
7d01f9d45d33ef5b60bc2909889e3f7d *21 Mississippi Half-Step Uptown Toodeloo.flac
92b58fdac25754967dac89dfa60fba8a *22 Stella Blue.flac
2f987bf326cb91e6455c25b36d859755 *23 Jack Straw.flac
a4bb6f1bd1717b2db405aadc3a6d7ba0 *24 Truckin'.flac
b07b3630620e90372302ef2d2a59dd6c *25 Drums.flac
ca4c383bf75cdfbf2256cbf1b734546b *26 The Other One.flac
855622554b28a207428d2fc3e46ae274 *27 Eyes Of The World.flac
f1760c129b7a2c6da9fd7220f6e1e844 *28 China Doll.flac
e1cbd30d012d8d2c13b8371538bb79bc *29 Johnny B Goode.flac
cb7b59c42e3c325a2fb81ff75d3e5c25 *30 Casey Jones.flac

Comments
Add Comment
Other Sources (comments)
Playin', plus most of set... (6) flac16; Taper Gerry... (0) flac16; Taper: Dan... (0) flac16; Recording... (0) flac24/96 ... (2)
Date User Comment
03/10/2018 mvernon source changed to SBD > Master Reels > Dat (16-bit/44.1k) > upsampled to 24-bit/96k