Browse Collections Artists Sources   Search Dates

Add Show    List Management    Help


Grateful Dead 10/06/80
Warfield Theater, San Francisco, CA
Comments Add Comment    Source Collectors    Add to Collection    Add to Want List    History
Source # 141335 Other Sources
Entered by Matt Vernon
Checksums ffp , flac-md5
Disc Counts 0 / 0
Media Size
Date Circulated
Date Added
03/12/2018
03/12/2018
Source Summary flac16; Source Info: Betty's 7" two track reels @ 7 1/2 ips > PCM; Transfer Info: PCM (Sony SL-10)> Sony PCM-601ESD > Behringer Ultramatch Pro > Tascam DA-3000 (wav 16-bit/44.1k)> Adobe Audition 3.0 > TLH flac16 
  Archive
Source Information - Download Text | Download Zip
Grateful Dead
Warfield Theater
San Francisco, CA
Monday October 6, 1980

Source Info:
Betty's 7" two track reels @ 7 1/2 ips > PCM

Transfer Info:
PCM (Sony SL-10)> Sony PCM-601ESD > Behringer Ultramatch Pro > Tascam DA-3000 (wav 16-bit/44.1k)> Adobe Audition 3.0 > TLH flac16

Notes:
- Thanks to Tim Dalton for the source PCM
- Thanks to Charlie Miller for the transfer
- Thanks to the folks responsible for the shnid89169 Nakamichi 700 source which supplies the first 0:06 of "Dire Wolf", the first 0:03 of "Monkey & The Engineeer", the first 1:39 of "Bird Song", as well as the first 0:02 Of "Ripple"
- Minor static around 2:42 of "Bird Song" minimized (present on all circulating copies)
- Transitions smoothed
- Levels smoothed

Mastered by Scott Clugston
March 12, 2018

Acoustic Set:
t01 - Dire Wolf
t02 - Cassidy
t03 - Jack-A-Roe
t04 - Monkey & The Engineer
t05 - I've Been All Around This World
t06 - Heaven Help The Fool
t07 - China Doll
t08 - On The Road Again
t09 - Bird Song >
t10 - Ripple

1st Electric Set:
t11 - China Cat Sunflower >
t12 - I Know You Rider >
t13 - Minglewood Blues



    length     expanded size    cdr  WAVE problems  fmt   ratio  filename
     3:39.07       38648108 B   ---   --   ---xx   flac  0.5075  gd80-10-06 t01 Dire Wolf.flac
     4:59.21       52793036 B   ---   --   ---xx   flac  0.5128  gd80-10-06 t02 Cassidy.flac
     4:23.34       46473212 B   ---   --   ---xx   flac  0.5218  gd80-10-06 t03 Jack-A-Roe.flac
     2:31.19       26681132 B   ---   --   ---xx   flac  0.5395  gd80-10-06 t04 Monkey & The Engineer.flac
     3:47.14       40075772 B   ---   --   ---xx   flac  0.4553  gd80-10-06 t05 I've Been All Around This World.flac
     6:17.72       66672188 B   ---   --   ---xx   flac  0.4470  gd80-10-06 t06 Heaven Help The Fool.flac
     5:26.06       57520556 B   ---   --   ---xx   flac  0.4224  gd80-10-06 t07 China Doll.flac
     2:56.35       31128764 B   ---   --   ---xx   flac  0.5032  gd80-10-06 t08 On The Road Again.flac
     8:06.67       85888028 B   ---   --   ---xx   flac  0.4681  gd80-10-06 t09 Bird Song.flac
     4:23.42       46492028 B   ---   --   ---xx   flac  0.4945  gd80-10-06 t10 Ripple.flac
     4:52.72       51678188 B   ---   --   ---xx   flac  0.5083  gd80-10-06 t11 China Cat Sunflower.flac
     5:15.52       55688348 B   ---   --   ---xx   flac  0.5294  gd80-10-06 t12 I Know You Rider.flac
     7:02.05       74452604 B   ---   --   ---xx   flac  0.5445  gd80-10-06 t13 New Minglewood Blues.flac
    63:41.71      674191964 B                            0.4936  (13 files)


Show Checksums
ffp
gd80-10-06 t01 Dire Wolf.flac:e9827e48430ab4a1bcf80465927770f6
gd80-10-06 t02 Cassidy.flac:61d8266f82a89b83b0f0888a07ef39fd
gd80-10-06 t03 Jack-A-Roe.flac:23cf0c2e9f541b89aae0643de1827681
gd80-10-06 t04 Monkey & The Engineer.flac:908b3e7ece6c92912f4d63c093509868
gd80-10-06 t05 I've Been All Around This World.flac:7135e0803caebb1d5197b20963290494
gd80-10-06 t06 Heaven Help The Fool.flac:d8317eb009e9cf88c70ab4e5742c86ea
gd80-10-06 t07 China Doll.flac:bfbee2630f12b29df759abe2656064bf
gd80-10-06 t08 On The Road Again.flac:7c2fc2c22daaf73c21e268a9f47dc24f
gd80-10-06 t09 Bird Song.flac:0e891ebf72f8b58822df0eda615d04ce
gd80-10-06 t10 Ripple.flac:e79c10a44769a7c6df38ffcb59361da9
gd80-10-06 t11 China Cat Sunflower.flac:01b52cb55886c637eb247c14ae05a275
gd80-10-06 t12 I Know You Rider.flac:67d457ed003065de1b4e4e31bf8ad9a5
gd80-10-06 t13 New Minglewood Blues.flac:bd5b5def994b113a28bc1019ec2ed732
flac-md5
f87b5778b8a80fba1f95cd93b6d75e2f *gd80-10-06 t01 Dire Wolf.flac
0240ffd7209488c9c864a95f5684ad86 *gd80-10-06 t02 Cassidy.flac
e51aa1251c3e70e95a2114acd85988bb *gd80-10-06 t03 Jack-A-Roe.flac
710325473354e7afe40a2d5e3b9a8cd4 *gd80-10-06 t04 Monkey & The Engineer.flac
bd3b9d144a95433d5206b33e02de95cb *gd80-10-06 t05 I've Been All Around This World.flac
0d9cc798d563794c761d193b1904b591 *gd80-10-06 t06 Heaven Help The Fool.flac
bfcef7863626df8acef70846cc4161a1 *gd80-10-06 t07 China Doll.flac
31b97261e9650f0d5136a9fdce05dd93 *gd80-10-06 t08 On The Road Again.flac
18bce8b30d60279aa2c77eca90a80e0b *gd80-10-06 t09 Bird Song.flac
6b2f06ffd2e4a446258e4a0a798ecf24 *gd80-10-06 t10 Ripple.flac
175e245e213bbcaae317853c995fc539 *gd80-10-06 t11 China Cat Sunflower.flac
386d12b49cf42751bd8a2c6c372cc910 *gd80-10-06 t12 I Know You Rider.flac
01d5a96fc17fcbe8ddade539428c1628 *gd80-10-06 t13 New Minglewood Blues.flac

Comments
Add Comment
Other Sources (comments)
Acoustic set only;... (0) Source: Recording... (1) flac16; Recording by... (0)
Date User Comment