Browse Collections Artists Sources   Search Dates

Add Show    List Management    Help


Grateful Dead 10/09/80
Warfield Theater, San Francisco, CA
Comments Add Comment    Source Collectors    Add to Collection    Add to Want List    History
Source # 141349 Other Sources
Entered by Matt Vernon
Checksums flac-md5 , ffp
Disc Counts 0 / 0
Media Size
Date Circulated
Date Added
03/12/2018
03/13/2018
Source Summary flac16; Source Info: Betty's 7" two track reels @ 7 1/2 ips > PCM; Transfer Info: PCM (Sony SL-10)> Sony PCM-601ESD > Behringer Ultramatch Pro > Tascam DA-3000 (wav 16-bit/44.1k)> Adobe Audition 3.0 > TLH flac16 
  Archive
Source Information - Download Text | Download Zip
Grateful Dead
Warfield Theater
San Francisco, CA
Thursday October 9, 1980

Source Info:
Betty's 7" two track reels @ 7 1/2 ips > PCM

Transfer Info:
PCM (Sony SL-10)> Sony PCM-601ESD > Behringer Ultramatch Pro > Tascam DA-3000 (wav 16-bit/44.1k)> Adobe Audition 3.0 > TLH flac16

Notes:
- Thanks to Tim Dalton for the source PCM
- Thanks to Charlie Miller for the transfer
- Thanks to the folks responsible for the shnid11042 soundboard source which supplies a 0:38 patch in "Ripple", this source was cut as well, but at a slightly different spot, there's still a few seconds missing
- Beginning of "Dire Wolf" is clipped
- First 0:35 of "Dire Wolf" is mono
- Beginning of "The Race Is On" is clipped
- Transitions smoothed
- Levels smoothed

Mastered by Scott Clugston
March 12, 2018

Acoustic Set:
t01 - Dire Wolf
t02 - Dark Hollow
t03 - I've Been All Around This World
t04 - Cassidy
t05 - China Doll
t06 - On The Road Again
t07 - Bird Song
t08 - The Race Is On
t09 - Oh Babe, It Ain't No Lie >
t10 - Ripple


    length     expanded size    cdr  WAVE problems  fmt   ratio  filename
     3:26.25       36397244 B   ---   --   ---xx   flac  0.4614  gd80-10-09 t01 Dire Wolf.flac
     3:30.18       37086380 B   ---   --   ---xx   flac  0.4660  gd80-10-09 t02 Dark Hollow.flac
     3:59.25       42218444 B   ---   --   ---xx   flac  0.4303  gd80-10-09 t03 I've Been All Around This World.flac
     6:38.57       70341308 B   ---   --   ---xx   flac  0.5192  gd80-10-09 t04 Cassidy.flac
     5:29.64       58186172 B   ---   --   ---xx   flac  0.4398  gd80-10-09 t05 China Doll.flac
     3:15.66       34553276 B   ---   --   ---xx   flac  0.5086  gd80-10-09 t06 On The Road Again.flac
     8:26.29       89326652 B   ---   --   ---xx   flac  0.4929  gd80-10-09 t07 Bird Song.flac
     2:59.51       31695596 B   ---   --   ---xx   flac  0.5411  gd80-10-09 t08 The Race Is On.flac
     6:34.59       69640412 B   ---   --   ---xx   flac  0.4304  gd80-10-09 t09 Oh Babe, It Ain't No Lie.flac
     4:03.08       42884060 B   ---   --   ---xx   flac  0.5041  gd80-10-09 t10 Ripple.flac
    48:24.27      512329544 B                            0.4776  (10 files)


Show Checksums
flac-md5
755d035bb54bfcc4e470f42f123eb0a2 *gd80-10-09 t01 Dire Wolf.flac
10d76a72cd8e8d921cc840b58cff49d7 *gd80-10-09 t02 Dark Hollow.flac
da81497aa01d8fbe407e3e36ebd6ae3e *gd80-10-09 t03 I've Been All Around This World.flac
ef45b181eb80c4f9d7de837d6fe07ebc *gd80-10-09 t04 Cassidy.flac
e260de967af8729c53611559ffcf9972 *gd80-10-09 t05 China Doll.flac
9da6e6bf732d37d6fe86c98067d77700 *gd80-10-09 t06 On The Road Again.flac
92747077b3f283216b6fa11062d95e36 *gd80-10-09 t07 Bird Song.flac
31754e9bcd9b22369a6208665f043467 *gd80-10-09 t08 The Race Is On.flac
5a5c3767a52b1a5de26bbd23e61844a0 *gd80-10-09 t09 Oh Babe, It Ain't No Lie.flac
e9bcd4f09896cf753602b8faaf700bac *gd80-10-09 t10 Ripple.flac
ffp
gd80-10-09 t01 Dire Wolf.flac:5e97f5c853a5afddb78aa823217eaa9a
gd80-10-09 t02 Dark Hollow.flac:284db637147a65dc8043c7255dacec10
gd80-10-09 t03 I've Been All Around This World.flac:b02b6fef02bd8794f643779187f26cd0
gd80-10-09 t04 Cassidy.flac:6c2499ba0c5ec68b949fb1e7c757abe0
gd80-10-09 t05 China Doll.flac:23a7d1c5fd7cfc2b73860d01876e1908
gd80-10-09 t06 On The Road Again.flac:9aa158c20bd61b975272c21398ae3100
gd80-10-09 t07 Bird Song.flac:90ff7b12c4902d97b92c3e7cc4a1b16b
gd80-10-09 t08 The Race Is On.flac:4a0b02982426b63d078af84a778a0230
gd80-10-09 t09 Oh Babe, It Ain't No Lie.flac:c22215c13d7eb7f272ee4dc4a14785ea
gd80-10-09 t10 Ripple.flac:c89f9f273e5201f3fa7091a2f4da5577

Comments
Add Comment
Other Sources (comments)
labelled as SBD> R> DAT>... (2) Source: 7" 2-track BBD reel... (0) flac16; Partial 1st... (0)
Date User Comment