Browse Collections Artists Sources   Search Dates

Add Show    List Management    Help


Grateful Dead 10/31/80
Radio City Music Hall, New York, NY
Comments Add Comment    Source Collectors    Add to Collection    Add to Want List    History
Source # 141354 Other Sources
Entered by Matt Vernon
Checksums flac-md5 , ffp
Disc Counts 0 / 0
Media Size
Date Circulated
Date Added
03/13/2018
03/14/2018
Source Summary flac16; Source Info: Satellite Feed > (McIntosh) 10" Master Reels @ 7.5 ips > PCM; Transfer Info: PCM (Sony SL-10)> Sony PCM-601ESD > Behringer Ultramatch Pro > Tascam DA-3000 (wav 16-bit/44.1k)> Adobe Audition 3.0 > TLH flac16 
  Archive
Source Information - Download Text | Download Zip
Grateful Dead
Radio City Music Hall
New York, NY
Friday October 31, 1980

Source Info:
Satellite Feed > (McIntosh) 10" Master Reels @ 7.5 ips > PCM

Transfer Info:
PCM (Sony SL-10)> Sony PCM-601ESD > Behringer Ultramatch Pro > Tascam DA-3000 (wav 16-bit/44.1k)> Adobe Audition 3.0 > TLH flac16

Notes:
- Thanks to Tim Dalton for the source PCM
- Thanks to Charlie Miller for the transfer
- Thanks to the folks responsible for the shnid140416 mono soundboard source which supplies the first 0:27 of "Heaven Help The Fool", a 0:10 patch in "Monkey & The Engineer", the first 0:02.4 of "Ripple", a 0:57 patch in "Ripple", a 0:29 patch in "Little Red Rooster", the first 0:03 of "Franklin's Tower", a 0:13 patch in "Drums", a 0:16 patch in "Fire On The Mountain", a patch in the transition and first few notes of "Going Down The Road Feeling Bad" (0:07 total), the final 3:42 of "Good Lovin', as well as the "Encore Break" and "Uncle John's Band" in their entireties

Mastered by Scott Clugston
March 13, 2018

Acoustic Set:
t01 - Heaven Help The Fool
t02 - Sage & Spirit
t03 - Little Sadie
t04 - Monkey & The Engineer
t05 - It Must Have Been The Roses
t06 - Cassidy
t07 - Bird Song >
t08 - Ripple

1st Electric Set:
t09 - Tuning
t10 - Jack Straw
t11 - Cold Rain & Snow
t12 - Me & My Uncle >
t13 - Mexicali Blues
t14 - Ramble on Rose >
t15 - Little Red Rooster
t16 - Brown Eyed Woman >
t17 - Looks Like Rain >
t18 - Deal

2nd Electric Set:
t19 - Tuning
t20 - Don't Ease Me In >
t21 - Lost Sailor >
t22 - Saint Of Circumstance >
t23 - Franklin's Tower >
t24 - Drums >
t25 - Space >
t26 - Fire On The Mountain >
t27 - Not Fade Away >
t28 - Stella Blue >
t29 - Goin Down The Road Feeling Bad >
t30 - Good Lovin'
t31 - Encore Break
t32 - Uncle John's Band



    length     expanded size    cdr  WAVE problems  fmt   ratio  filename
     6:23.02       67565948 B   ---   --   ---xx   flac  0.5820  gd80-10-31 t01 Heaven Help The Fools.flac
     4:51.36       51417116 B   ---   --   ---xx   flac  0.5537  gd80-10-31 t02 Sage & Spirit.flac
     3:19.42       35202428 B   ---   --   ---xx   flac  0.5950  gd80-10-31 t03 Little Sadie.flac
     3:12.47       33979388 B   ---   --   ---xx   flac  0.6012  gd80-10-31 t04 Monkey & The Engineer.flac
     7:19.53       77564300 B   ---   --   ---xx   flac  0.5869  gd80-10-31 t05 It Must Have Been The Roses.flac
     7:23.32       78220508 B   ---   --   ---xx   flac  0.6041  gd80-10-31 t06 Cassidy.flac
     9:24.06       99503756 B   ---   --   ---xx   flac  0.6016  gd80-10-31 t07 Bird Song.flac
     4:26.63       47070620 B   ---   --   ---xx   flac  0.5674  gd80-10-31 t08 Ripple.flac
     0:54.21        9575036 B   ---   --   ---xx   flac  0.5249  gd80-10-31 t09 Tuning.flac
     6:07.69       64901132 B   ---   --   ---xx   flac  0.6182  gd80-10-31 t10 Jack Straw.flac
     6:40.54       70687052 B   ---   --   ---xx   flac  0.6098  gd80-10-31 t11 Cold Rain & Snow.flac
     2:58.11       31425116 B   ---   --   ---xx   flac  0.6193  gd80-10-31 t12 Me & My Uncle.flac
     4:47.63       50775020 B   ---   --   ---xx   flac  0.6141  gd80-10-31 t13 Mexicali Blues.flac
     7:42.30       81567404 B   ---   --   ---xx   flac  0.5881  gd80-10-31 t14 Ramble On Rose.flac
    11:30.30      121786604 B   ---   --   ---xx   flac  0.5668  gd80-10-31 t15 Little Red Rooster.flac
     5:10.19       54728732 B   ---   --   ---xx   flac  0.5731  gd80-10-31 t16 Brown Eyed Women.flac
     6:51.66       72655676 B   ---   --   ---xx   flac  0.5592  gd80-10-31 t17 Looks Like Rain.flac
     6:25.56       68045756 B   ---   --   ---xx   flac  0.6226  gd80-10-31 t18 Deal.flac
     1:04.14       11322572 B   ---   --   ---xx   flac  0.5072  gd80-10-31 t19 Tuning.flac
     3:35.55       38055404 B   ---   --   ---xx   flac  0.6636  gd80-10-31 t20 Don't Ease Me In.flac
    10:09.69      107589932 B   ---   --   ---xx   flac  0.6160  gd80-10-31 t21 Lost Sailor.flac
     2:24.51       25521596 B   ---   --   ---xx   flac  0.6353  gd80-10-31 t22 Saint Of Circumstance.flac
     9:09.41       96940076 B   ---   --   ---xx   flac  0.6281  gd80-10-31 t23 Franklins' Tower.flac
    13:21.10      141319964 B   ---   --   ---xx   flac  0.5155  gd80-10-31 t24 Drums.flac
     3:05.50       32751644 B   ---   --   ---xx   flac  0.5325  gd80-10-31 t25 Space.flac
    10:02.18      106235180 B   ---   --   ---xx   flac  0.6121  gd80-10-31 t26 Fire On The Mountain.flac
     6:20.17       67072028 B   ---   --   ---xx   flac  0.6312  gd80-10-31 t27 Not Fade Away.flac
     9:47.10      103570364 B   ---   --   ---xx   flac  0.5822  gd80-10-31 t28 Stella Blue.flac
     6:08.23       64969340 B   ---   --   ---xx   flac  0.6343  gd80-10-31 t29 Goin' Down The Road Feeling Bad.flac
     6:43.25       71148044 B   ---   --   ---xx   flac  0.5670  gd80-10-31 t30 Good Lovin'.flac
     5:45.66       61013276 B   ---   --   ---xx   flac  0.2761  gd80-10-31 t31 Encore Break.flac
     8:13.20       87012284 B   ---   --   ---xx   flac  0.2865  gd80-10-31 t32 Uncle John's Band.flac
   201:21.44     2131193296 B                            0.5698  (32 files)


Show Checksums
flac-md5
6752f18cb907e7a5769dc4aac6f97578 *gd80-10-31 t01 Heaven Help The Fools.flac
923629c776cef261361e13b4c57a5f80 *gd80-10-31 t02 Sage & Spirit.flac
7d7f0f61ffaf94b204d2e102e7b6557e *gd80-10-31 t03 Little Sadie.flac
b995935bb47151d45274d2cf1e5956e4 *gd80-10-31 t04 Monkey & The Engineer.flac
5b1d0b05444419715f51784991518c34 *gd80-10-31 t05 It Must Have Been The Roses.flac
3345c2d4ec804818efd1e7b1ed4a7dcc *gd80-10-31 t06 Cassidy.flac
3ec605249fa13fe701a2994eacf42cc8 *gd80-10-31 t07 Bird Song.flac
5f3efedef0becba8697aefa16c05fb5d *gd80-10-31 t08 Ripple.flac
f7256e5d9e4110e29270c1f147c4dbc3 *gd80-10-31 t09 Tuning.flac
0ec3d5c5058387fa7e7f2e698aa7409a *gd80-10-31 t10 Jack Straw.flac
1f9b257c96544ff9fb6fd50db3392b85 *gd80-10-31 t11 Cold Rain & Snow.flac
532733156cc6fb61dd5b892e1014b63e *gd80-10-31 t12 Me & My Uncle.flac
df2f303e0451b54996a8f9f25f6f8749 *gd80-10-31 t13 Mexicali Blues.flac
b4241238d64c1ab7b19c6797fece5c49 *gd80-10-31 t14 Ramble On Rose.flac
24e870fff4fb0d6a3b2776382bf4740d *gd80-10-31 t15 Little Red Rooster.flac
81d1adb01255d33f801cde62a2fad063 *gd80-10-31 t16 Brown Eyed Women.flac
bbfb56c509c55639ba3f090a29340968 *gd80-10-31 t17 Looks Like Rain.flac
f6dc0ad44b484ba2aafe7ed6be40ab93 *gd80-10-31 t18 Deal.flac
227fe0fd2101b2b5c15d9f2ec72ded9d *gd80-10-31 t19 Tuning.flac
dff1e6c704adccb1f6f75c24a7bdbf9b *gd80-10-31 t20 Don't Ease Me In.flac
967c4a5d2e099825f81d42d4d3765449 *gd80-10-31 t21 Lost Sailor.flac
3e86620b41c492cd394edd6919ea7852 *gd80-10-31 t22 Saint Of Circumstance.flac
8b3da609807f2b7d3a2390a73409d0b7 *gd80-10-31 t23 Franklins' Tower.flac
edcaf24bb5756c641ccfe0247f9f1100 *gd80-10-31 t24 Drums.flac
b88f64fc16e32495b461377aaa8dcb3b *gd80-10-31 t25 Space.flac
c5180b749f9a76f5dc1fd2e5a0c1c1e9 *gd80-10-31 t26 Fire On The Mountain.flac
c14f16bca4c8bfc4e52554a4ae922f1c *gd80-10-31 t27 Not Fade Away.flac
44a418f5488b5efdd82ba4a4cfdb5d84 *gd80-10-31 t28 Stella Blue.flac
cd125e231abfd9befddaeafe6f350055 *gd80-10-31 t29 Goin' Down The Road Feeling Bad.flac
40ac340d020911a56d3f82a1344000ad *gd80-10-31 t30 Good Lovin'.flac
e9c4d3a493dd09adc18a21e9890cbf2a *gd80-10-31 t31 Encore Break.flac
e500e03bf2df2f5aba5d5dd4a2e25024 *gd80-10-31 t32 Uncle John's Band.flac
ffp
gd80-10-31 t01 Heaven Help The Fools.flac:816939a78c929fe4f635f9745959e5ec
gd80-10-31 t02 Sage & Spirit.flac:27617868a397923dc7f14036b2f7bab0
gd80-10-31 t03 Little Sadie.flac:81c5c1f29a780fefaea6f15b8985424d
gd80-10-31 t04 Monkey & The Engineer.flac:24fcfa60659c2eda290163df64bf73b1
gd80-10-31 t05 It Must Have Been The Roses.flac:a8a9c8681876cc2fefde630cfc71f072
gd80-10-31 t06 Cassidy.flac:2a2b2ed6f6175cfe4c1000ed793afdcb
gd80-10-31 t07 Bird Song.flac:79fb9a261105825b63350c7804d6b436
gd80-10-31 t08 Ripple.flac:5661c1223713f68c7261ceaac005af0e
gd80-10-31 t09 Tuning.flac:c1d686010dab2546a6286c815331e8f9
gd80-10-31 t10 Jack Straw.flac:06a6b3511ea49afab9a651190cf2a205
gd80-10-31 t11 Cold Rain & Snow.flac:2a34e8dc9902581824b5b1b4114e9c61
gd80-10-31 t12 Me & My Uncle.flac:274efb0bb1086a921f7817480829ea37
gd80-10-31 t13 Mexicali Blues.flac:b7536c94828c71db4accda7aff8a3f8e
gd80-10-31 t14 Ramble On Rose.flac:3f1796616cdbbb188ab833a918ecd0e8
gd80-10-31 t15 Little Red Rooster.flac:f8031e8de8d6ae0bb67d1f3511c7ed17
gd80-10-31 t16 Brown Eyed Women.flac:51a2b042ccf7d8561e49b9b974c0a6c3
gd80-10-31 t17 Looks Like Rain.flac:af71b7a1eab53acebf6a75373bb5d781
gd80-10-31 t18 Deal.flac:029b7d6a008aa4dbf48ebc6781c108ef
gd80-10-31 t19 Tuning.flac:60a6d948a49fd1500a95d3138cf0189a
gd80-10-31 t20 Don't Ease Me In.flac:92a5c3ae0b08681cff3b1fcdbcb97594
gd80-10-31 t21 Lost Sailor.flac:54754535b64d72ad6b790917fcce16f6
gd80-10-31 t22 Saint Of Circumstance.flac:034796d1266d94a4c49d17ee0ef518ff
gd80-10-31 t23 Franklins' Tower.flac:6bb22803a2f0c559d7cb59ac5f699056
gd80-10-31 t24 Drums.flac:1aff4f4bc03b5ab4a6dd319176c67ced
gd80-10-31 t25 Space.flac:e02c2af800c67a0c21082efe5ba17417
gd80-10-31 t26 Fire On The Mountain.flac:c1d8b18265da7482147533b4f0e89a86
gd80-10-31 t27 Not Fade Away.flac:ed772e2e6ac0a49f0c9716d6e8f667c0
gd80-10-31 t28 Stella Blue.flac:0a580213ffd71ea48e24616c3f79f46b
gd80-10-31 t29 Goin' Down The Road Feeling Bad.flac:1d882e12da63977870c9904fa70f1cdb
gd80-10-31 t30 Good Lovin'.flac:3f8eb961f5a1418105c678036a2e2032
gd80-10-31 t31 Encore Break.flac:b66542151207ede2fdbbbf3b19aa918f
gd80-10-31 t32 Uncle John's Band.flac:09c394991b8fdbd2b7bd9829c9b49a9b

Comments
Add Comment
Other Sources (comments)
Recording by Jim Wise:... (2) Source: Acoustic:... (4) flac16; Acoustic:... (1) flac16; Recording... (0) flac16; Recording... (0) flac16; Loge Dead... (0) flac16; 3 Source... (0) flac24; Partial... (0) flac16/48kHz;... (0) flac24; Cassette... (0) flac24; Updated... (3) flac16; Updated... (3) flac16; Source:... (0) flac24; Source:... (0) flac16; Source:... (0)
Date User Comment