Browse Collections Artists Sources   Search Dates

Add Show    List Management    Help


Grateful Dead 03/25/83
Compton Terrace Amphitheatre, Tempe, AZ
Comments Add Comment    Source Collectors    Add to Collection    Add to Want List    History
Source # 141356 Other Sources
Entered by Matt Vernon
Checksums ffp , flac-md5
Disc Counts 0 / 0
Media Size
Date Circulated
Date Added

03/14/2018
Source Summary flac24/48 Recording Information Master AUD Cassette: Nakamichi 300's >Sony TCD5> 3rd in line Sony TCD5M|TDK MA-C90 Location: 75 ft from stacks DFC Transfer: Nakimichi CR-5A->Dogstar cables-> Tascam DR-680|SD Recorded by: Kyle Holbrook Transferred: Kyle Holbrook 
  Archive
Source Information - Download Text | Download Zip
Grateful Dead
Compton Terrace Amphitheatre
Tempe AZ
Date 1983-03-25

This is a 24 bit 48khz fileset

Set One:
01. tuning
02. Cold Rain and Snow
03. New Minglewood Blues
04. Dire Wolf
05. My Brother Esau
06. Big Railroad Blues //
07. Me and My Uncle
08. Big River
09. Tennessee Jed
10. Let it Grow

Set Two:
01. Help on the Way >
02. Slipknot! >
03. Franklin's Tower > &
04. Playin' in the Band >
05. drums //
06. space >
07. Throwin' Stones >
08. Not Fade Away >
09. Black Peter >
10. Sugar Magnolia
11. Encore Don't Ease Me In ^

Recording Notes:
Heavy wind gust noise and light rain most of Set One
// tape flip
^ missed start
& distortion from PA- Rain residue we always thought!

Recording Information
Master AUD Cassette: Nakamichi 300's >Sony TCD5> 3rd in line Sony TCD5M|TDK MA-C90
Location: 75 ft from stacks DFC
Transfer: Nakimichi CR-5A->Dogstar cables-> Tascam DR-680|SD
Recorded by: Kyle Holbrook
Transferred: Kyle Holbrook

=============================================================================
Spring Tour 1983- Executive Crew grows
Sometime in January I got a a call from my Arizona friend Cliff who offered me to put me up if I came out to the Tempe show in March. After what was surely NOT careful deliberation I made plans to fly out there. I had never flown to a Grateful Dead show making this another GD first which was broken in 1983. Since we wanted to record but knew I had a limited amount of luggage space, we decided I would go out with only the JVC headphone binaural microphones and the deck with RCA patch cords in case a patch became possible. One thing that should be emphasized about these early recordings is the nature of having to sneak all the gear in even though once inside the band rarely said anything and it became de facto allowed.

For this show I recall my friend driving there in a white van filled with 6-7 Deadheads and the parking lot was adjacent/above the field. IF this is the same physical location as the later Compton Terrace Amphitheatre, the venue in 1983 was nothing like that. Only a stage in a field on top of the mesa.I got in with the deck and headed toward the soundboard area finding a guy with some Nakamichi shotguns on a low stand just in front of the board who offered me a patch. I was happy to be set and in a pretty nice location. Until the rain, or the wind or both. The entire first set this spitting rain and gusting wind made it a tough one, especially as most of us had arrived wearing shorts and T shirts in the Arizona spring weather. At the end of the first set Bobby says. "We're going to take a break, dry off our instruments it will be a lot better, you'll like it and so will we"

This recording is a good representation of the typical set-up for the 1983 timeframe. In my opinion it suffers from  abit of overmodulation of the mics at the pre-amps; this is a trait which has been often associated with the Nakamichi shotgun style microphones I patched out of. I do no recall the taper or if I met him on later tours. The show was pretty good for the rainy conditions and I would point to the Let it Grow and the Help>Slip>Franklins as performance highlights. The Big RR Blues is a real special rendition! Bobby says they are going to keep up the tempo and they played some more cowboy tunes.All in all this was a fine show and a great warm up to the rest of spring tour.

- - -

    length     expanded size    cdr  WAVE problems  fmt   ratio  filename
     0:33.693       9703724 B   cxx   --   ---xx   flac  0.7134  gd1983-03-25nak300holbrook-24s1t01.flac
     6:33.480     113322284 B   cxx   --   ---xx   flac  0.7391  gd1983-03-25nak300holbrook-24s1t02.flac
     9:00.360     155623724 B   cxx   --   ---xx   flac  0.7458  gd1983-03-25nak300holbrook-24s1t03.flac
     3:37.773      62718764 B   cxx   --   ---xx   flac  0.7437  gd1983-03-25nak300holbrook-24s1t04.flac
     4:51.160      83854124 B   cxx   --   ---xx   flac  0.7489  gd1983-03-25nak300holbrook-24s1t05.flac
     5:37.693      97255724 B   cxx   --   ---xx   flac  0.7584  gd1983-03-25nak300holbrook-24s1t06.flac
     3:08.373      54251564 B   cxx   --   ---xx   flac  0.7417  gd1983-03-25nak300holbrook-24s1t07.flac
     6:16.867     108537644 B   cxx   --   ---xx   flac  0.7502  gd1983-03-25nak300holbrook-24s1t08.flac
     8:02.040     138827564 B   cxx   --   ---xx   flac  0.7476  gd1983-03-25nak300holbrook-24s1t09.flac
    11:02.536     190810412 B   cxx   --   ---xx   flac  0.7617  gd1983-03-25nak300holbrook-24s1t10.flac
     3:52.693      67015724 B   cxx   --   ---xx   flac  0.7432  gd1983-03-25nak300holbrook-24s2t01.flac
     4:01.880      69661484 B   cxx   --   ---xx   flac  0.7641  gd1983-03-25nak300holbrook-24s2t02.flac
     9:41.813     167562284 B   cxx   --   ---xx   flac  0.7734  gd1983-03-25nak300holbrook-24s2t03.flac
    11:09.600     192844844 B   cxx   --   ---xx   flac  0.7563  gd1983-03-25nak300holbrook-24s2t04.flac
     4:27.520      77045804 B   cxx   --   ---xx   flac  0.7349  gd1983-03-25nak300holbrook-24s2t05.flac
     4:52.200      84153644 B   cxx   --   ---xx   flac  0.6996  gd1983-03-25nak300holbrook-24s2t06.flac
     6:43.813     116298284 B   cxx   --   ---xx   flac  0.7551  gd1983-03-25nak300holbrook-24s2t07.flac
     5:44.867      99321644 B   cxx   --   ---xx   flac  0.7533  gd1983-03-25nak300holbrook-24s2t08.flac
     8:47.093     151802924 B   cxx   --   ---xx   flac  0.7442  gd1983-03-25nak300holbrook-24s2t09.flac
     9:15.667     160032044 B   cxx   --   ---xx   flac  0.7778  gd1983-03-25nak300holbrook-24s2t10.flac
     2:55.982      50682890 B   cxx   --   ---xx   flac  0.7829  gd1983-03-25nak300holbrook-24s2t11.flac
   130:17.105    2251327098 B                            0.7526  (21 files)






Show Checksums
ffp
gd1983-03-25nak300holbrook-24s1t01.flac:bd3e642e277e928653a006b0d0d0f12c
gd1983-03-25nak300holbrook-24s1t02.flac:bfc598341e2e117c8d2dbf74433062df
gd1983-03-25nak300holbrook-24s1t03.flac:3a1259409893eded64e9bb7ab37d5727
gd1983-03-25nak300holbrook-24s1t04.flac:68e8edacd59fd77472c562a53809d671
gd1983-03-25nak300holbrook-24s1t05.flac:77e0fbf8a8c3188adbc63b0e8c3710a4
gd1983-03-25nak300holbrook-24s1t06.flac:9773b79c2b35d3a9403f60d1e3d75fac
gd1983-03-25nak300holbrook-24s1t07.flac:e4c150c4e2e981aa661078249304db4c
gd1983-03-25nak300holbrook-24s1t08.flac:10165cd91b869027bfd5e419405c036e
gd1983-03-25nak300holbrook-24s1t09.flac:12c5fc731accc313338c6251883928a6
gd1983-03-25nak300holbrook-24s1t10.flac:bf5c8f9801b870248b07d70ee9b27589
gd1983-03-25nak300holbrook-24s2t01.flac:c12c36b96c27f2cabb9c1319267658b6
gd1983-03-25nak300holbrook-24s2t02.flac:19697a8206fe8a690375e308a9b56e67
gd1983-03-25nak300holbrook-24s2t03.flac:d4d70c2f64f92ab1c367decb267801d1
gd1983-03-25nak300holbrook-24s2t04.flac:f537df7ddc4635731332d21855f9cca2
gd1983-03-25nak300holbrook-24s2t05.flac:ada0ab4d3006f11ce1a9a56d2a6ec04e
gd1983-03-25nak300holbrook-24s2t06.flac:ef2c19e36bee765a8fb5ed7472bb0bd9
gd1983-03-25nak300holbrook-24s2t07.flac:ad85e571ad76554cffc0a71f52f174ee
gd1983-03-25nak300holbrook-24s2t08.flac:cb82c22f81f8d62b2c7c2f51f9834d72
gd1983-03-25nak300holbrook-24s2t09.flac:e01e279687e177a76111184807774043
gd1983-03-25nak300holbrook-24s2t10.flac:c411db58666f72e5eb0483d85000852d
gd1983-03-25nak300holbrook-24s2t11.flac:dd32bde42678a3b9f83414d2ffefd1a0
flac-md5
017d827f0d2f1922b6d4183ddec2e616 *gd1983-03-25nak300holbrook-24s1t01.flac
2562e307ef38b1c67ea2e3581a3e648a *gd1983-03-25nak300holbrook-24s1t02.flac
70fb411143f15a74bf248cce15dcfe4e *gd1983-03-25nak300holbrook-24s1t03.flac
4abff3bdaf272cb196a473e745c1e3a0 *gd1983-03-25nak300holbrook-24s1t04.flac
70a98176e444369f3addfcd48b9c2702 *gd1983-03-25nak300holbrook-24s1t05.flac
43f7f54a968352bc3744127b5bfb5368 *gd1983-03-25nak300holbrook-24s1t06.flac
d10ca22af64bdd324289a60cf1368922 *gd1983-03-25nak300holbrook-24s1t07.flac
fecc6f37415e6b6419be52232c5cb549 *gd1983-03-25nak300holbrook-24s1t08.flac
3bd79d56b8a77c15dcbc5387fad7919b *gd1983-03-25nak300holbrook-24s1t09.flac
7c2d95efdaf950bf6b56bd990d45b079 *gd1983-03-25nak300holbrook-24s1t10.flac
5a58c872c7a19b0953a35ec8bf2f2ec8 *gd1983-03-25nak300holbrook-24s2t01.flac
3ffc9c156be1eb0cf7dcd2634fa12f70 *gd1983-03-25nak300holbrook-24s2t02.flac
7cbd118c50c903598240f954d21b1a74 *gd1983-03-25nak300holbrook-24s2t03.flac
4711c36d61b4d6127a01ce1989690314 *gd1983-03-25nak300holbrook-24s2t04.flac
7e2ee9f5b6adc873f075076478e743a8 *gd1983-03-25nak300holbrook-24s2t05.flac
658f96aac9ba2d65c2c592fba5afc67b *gd1983-03-25nak300holbrook-24s2t06.flac
bfcf0ebf71684e3ad812a086ca5e427d *gd1983-03-25nak300holbrook-24s2t07.flac
bff760165cf2696b140b847d4ea563dd *gd1983-03-25nak300holbrook-24s2t08.flac
a81c3b8ff3a4ab69849ff7ebae538c8a *gd1983-03-25nak300holbrook-24s2t09.flac
b7ad589ed68752ead96ad792f15ccb59 *gd1983-03-25nak300holbrook-24s2t10.flac
216c005aa3213eebf38e3b5929cb2a56 *gd1983-03-25nak300holbrook-24s2t11.flac

Comments
Add Comment
Other Sources (comments)
FOB>3 Senn.... (1) SBD -> Cassette Master ->... (0) flac24; AUD:... (0) flac16; AUD:... (0) flac16; Source Info:... (0) flac16/44.1 ... (0)
Date User Comment