Browse Collections Artists Sources   Search Dates

Add Show    List Management    Help


Garcia 11/01/81
S.U.N.Y., Brockport, NY
Comments Add Comment    Source Collectors    Add to Collection    Add to Want List    History
Source # 141362 Other Sources
Entered by Todd
Checksums ffp , md5
Disc Counts 0 / 0
Media Size
Date Circulated
Date Added
02/11/2018
03/16/2018
Source Summary JGB, flac24; Unknown Mics > Cm (Kyocera D-811) > Sony PCM-2600 Dat > Tascam Da-30MKII > M-Audio Microtrack II > Adobe Audition 3.0 > Flac24 
Source Information - Download Text | Download Zip
Jerry Garcia Band
Tuttle North Gymnasium
State University of New York
Brockport, NY
Sunday November 1, 1981

Source Info:
Pete & Joel's Master Audience Cassettes; most likely Nakamichi CM300 mics (possibly CM100's)

Transfer Info:
Master Cassettes (Kyocera D-811)> Sony PCM-2600 Dat (16-bit/48k)transferred in 1998
Dat (Tascam DA-30 mkII)(16-bit/48k)> M-Audio Microtrack II (.wav 24-bit/48k)transferred around 2015 > Adobe Audition 3.0 (24/48) > TLH 24/48

Notes:
- Thanks to Pete & Joel for the master cassettes
- Thanks to Ray Ackerman for the transfers
- Thanks to Charlie Miller for coordinating this effort
- Missing "The Way You Do The Things You Do"
- "They Love Each Other" cuts in
- "Midnight Moonlight" clipped
- Level fluctuations smoothed
- Abrupt transitions smoothed as best as possible
- A couple of what sound like mic bumps minimized (Missisippi Moon)
- Upgrade to what is in circulation (2/18)

Mastered by Scott Clugston
February 10, 2018

Set 1:
xxx - The Way You Do The Things You Do (missing)
t01 - //They Love Each Other
t03 - Mississippi Moon
t04 - I Second That Emotion
t05 - Mystery Train
t06 - Tangled Up In Blue

Set 2:
t07 - Harder They Come, Harder They Fall
t08 - Mission In The Rain
t09 - Russian Lullaby
t10 - The Night They Drove Old Dixie Down >
t11 - Dear Prudence
t12 - //Midnight Moonlight



    length     expanded size    cdr  WAVE problems  fmt   ratio  filename
     3:59.307      68920364 B   cxx   --   ---xx   flac  0.7072  jgb81-11-01 t01 They Love Each Other.flac
    11:00.693     190279724 B   cxx   --   ---xx   flac  0.7116  jgb81-11-01 t02 Mississippi Moon.flac
     8:25.173     145489964 B   cxx   --   ---xx   flac  0.7323  jgb81-11-01 t03 I Second That Emotion.flac
     8:01.813     138762284 B   cxx   --   ---xx   flac  0.7448  jgb81-11-01 t04 Mystery Train.flac
    10:17.187     177749804 B   cxx   --   ---xx   flac  0.7411  jgb81-11-01 t05 Tangled Up In Blue.flac
    13:34.480     234570284 B   cxx   --   ---xx   flac  0.7392  jgb81-11-01 t06 Harder They Come, Harder They Fall.flac
    10:45.773     185982764 B   cxx   --   ---xx   flac  0.7409  jgb81-11-01 t07 Mission In The Rain.flac
    12:52.427     222458924 B   cxx   --   ---xx   flac  0.7023  jgb81-11-01 t08 Russian Lullaby.flac
     7:43.347     133443884 B   cxx   --   ---xx   flac  0.7340  jgb81-11-01 t09 The Night They Drove Old Dixie Down.flac
    12:25.480     214698284 B   cxx   --   ---xx   flac  0.7326  jgb81-11-01 t10 Dear Prudence.flac
     5:42.988      98780660 B   cxx   --   ---xx   flac  0.7404  jgb81-11-01 t11 Midnight Moonlight.flac
   104:48.668    1811136940 B                            0.7297  (11 files)

No errors occured.


Show Checksums
ffp
jgb81-11-01 t01 They Love Each Other.flac:fdb9b788437754fb4bb9d452f5a95586
jgb81-11-01 t02 Mississippi Moon.flac:5f54f6d4f46845d54335987f238639a5
jgb81-11-01 t03 I Second That Emotion.flac:e0617489ec77f092ccbe96b2e51ac6d7
jgb81-11-01 t04 Mystery Train.flac:9b11935b402065baacaa6dcab961e29c
jgb81-11-01 t05 Tangled Up In Blue.flac:81cc0a6de202773858782b6b0e0164f8
jgb81-11-01 t06 Harder They Come, Harder They Fall.flac:8adde85636ea59e21022aaddfb0098c9
jgb81-11-01 t07 Mission In The Rain.flac:64735f02b2d5107d2e7e10477780f0f8
jgb81-11-01 t08 Russian Lullaby.flac:8f4c24a9157663cacd8c1d692938e0b0
jgb81-11-01 t09 The Night They Drove Old Dixie Down.flac:5d0a475251aac5b7838649c5416ffaa8
jgb81-11-01 t10 Dear Prudence.flac:be2db37f996fa97e97ae4a3e19641a88
jgb81-11-01 t11 Midnight Moonlight.flac:267c470f27cb749e84e29c9ec79b3266
md5
ff1ed816f1f6f4b759bfbbe97a3b26f6 *jgb81-11-01 t01 They Love Each Other.flac
abb682a5998020b7ef7d7dd1b72626ee *jgb81-11-01 t02 Mississippi Moon.flac
6af25b453ffcd76e663c475bd6f423ef *jgb81-11-01 t03 I Second That Emotion.flac
71a684236d5d50e6f97fdaa5ea23b312 *jgb81-11-01 t04 Mystery Train.flac
5ce3c51ee411edadaff8bc51441de2d3 *jgb81-11-01 t05 Tangled Up In Blue.flac
f64e7c3465fda16610ea9f20fe17baf8 *jgb81-11-01 t06 Harder They Come, Harder They Fall.flac
ee7efed3f6634b673b25a8c2b76fe2ab *jgb81-11-01 t07 Mission In The Rain.flac
c913a83ed5c67346db1cfafb9fcc6330 *jgb81-11-01 t08 Russian Lullaby.flac
825e8c5017978318c141fa030dc3d065 *jgb81-11-01 t09 The Night They Drove Old Dixie Down.flac
d8e6f25b73d5305d44062e660a24b0a7 *jgb81-11-01 t10 Dear Prudence.flac
bcc690ff22bc74d0a50e0e828f2bb48b *jgb81-11-01 t11 Midnight Moonlight.flac

Comments
Add Comment
Other Sources (comments)
JGB; Recorded by Bob Gates;... (0) JGB, flac1644; Partial;... (0) JGB, flac1644; Unknown Mics... (0)
Date User Comment