Browse Collections Artists Sources   Search Dates

Add Show    List Management    Help


Grateful Dead 07/01/80
San Diego Sports Arena, San Diego, CA
Comments Add Comment    Source Collectors    Add to Collection    Add to Want List    History
Source # 141396 Other Sources
Entered by Matt Vernon
Checksums ffp , flac-md5
Disc Counts 0 / 0
Media Size
Date Circulated
Date Added
03/17/2018
03/17/2018
Source Summary flac16; Source Info: Master Soundboard Cassettes > ?? > Reel to Reel > PCM; Transfer Info: PCM (Sony SL-10)> Sony PCM-601ESD > Behringer Ultramatch Pro > Tascam DA-3000 (wav 16-bit/44.1k)> Adobe Audition 3.0 > TLH flac16 
  Archive
Source Information - Download Text | Download Zip
Grateful Dead
Sports Arena
San Diego CA
Tuesday July 1, 1980

Source Info:
Master Soundboard Cassettes > ?? > Reel to Reel > PCM

Transfer Info:
PCM (Sony SL-10)> Sony PCM-601ESD > Behringer Ultramatch Pro > Tascam DA-3000 (wav 16-bit/44.1k)> Adobe Audition 3.0 > TLH flac16

Notes:
- Thanks to Tim Dalton for the source PCM
- Thanks to Charlie Miller for the transfer
- Thanks to Brian Schley & Andrew F for the shnid136754 audience source which supplies a 1:02 patch in "Supplication", a 5:02 patch in "Lost Sailor > Saint Of Circumstance", the crowd and the first few notes of "Uncle John's Band" (0:04 total), a 0:53 patch in the jam out of "Playin' In The Band", as well as a 0:40 patch in "Good Lovin'"
- "Truckin'" space included in "Truckin'"
- Encores from a higher gen source
- Bob Weir, Mickey Hart, David Rifkin & Christy Lantz were arrested after the show. Blurb from the Santa Cruz Sentinel included, courtesy of the Santa Cruz Sentinel and gratefulseconds.blogspot.com

Mastered by Scott Clugston
3/15/2018

Set One:
t01 - Tuning
t02 - Jack Straw >
t03 - Franklin's Tower >
t04 - El Paso
t05 - Tennessee Jed
t06 - Lazy Lightning >
t07 - Supplication
t08 - Althea >
t09 - Lost Sailor >
t10 - Saint of Circumstance

Set Two:
t11 - China Cat Sunflower >
t12 - I Know You Rider >
t13 - C.C. Rider
t14 - Peggy-O
t15 - Far From Me
t16 - Uncle John's Band >
t17 - Playin' in the Band >
t18 - Drums >
t19 - Space >
t20 - Truckin' >
t21 - Wharf Rat >
t22 - Around & Around >
t23 - Good Lovin'
Encore:
t24 - Alabama Getaway >
t25 - Johnny B. Goode


    length     expanded size    cdr  WAVE problems  fmt   ratio  filename
     4:39.57       49349708 B   ---   --   ---xx   flac  0.4704  gd80-07-01 t01 Tuning.flac
     5:55.39       62713772 B   ---   --   ---xx   flac  0.5635  gd80-07-01 t02 Jack Straw.flac
    13:04.50      138415244 B   ---   --   ---xx   flac  0.5671  gd80-07-01 t03 Franklin's Tower.flac
     6:38.60       70348364 B   ---   --   ---xx   flac  0.5231  gd80-07-01 t04 El Paso.flac
    10:44.19      113646332 B   ---   --   ---xx   flac  0.5453  gd80-07-01 t05 Tennessee Jed.flac
     3:23.31       35882156 B   ---   --   ---xx   flac  0.5852  gd80-07-01 t06 Lazy Lightning.flac
     7:59.04       84505052 B   ---   --   ---xx   flac  0.5825  gd80-07-01 t07 Supplication.flac
     8:58.65       95056124 B   ---   --   ---xx   flac  0.6286  gd80-07-01 t08 Althea.flac
     6:04.47       64320188 B   ---   --   ---xx   flac  0.5825  gd80-07-01 t09 Lost Sailor.flac
     6:19.41       66952076 B   ---   --   ---xx   flac  0.6010  gd80-07-01 t10 Saint Of Circumstance.flac
     8:30.66       90119276 B   ---   --   ---xx   flac  0.6304  gd80-07-01 t11 China Cat Sunflower.flac
     6:19.27       66919148 B   ---   --   ---xx   flac  0.6466  gd80-07-01 t12 I Know You Rider.flac
     7:02.33       74518460 B   ---   --   ---xx   flac  0.6133  gd80-07-01 t13 CC Rider.flac
     7:20.07       77632508 B   ---   --   ---xx   flac  0.5783  gd80-07-01 t14 Peggy O.flac
     4:19.27       45751148 B   ---   --   ---xx   flac  0.6076  gd80-07-01 t15 Far From Me.flac
     7:32.29       79801052 B   ---   --   ---xx   flac  0.5712  gd80-07-01 t16 Uncle John's Band.flac
    10:56.71      115885436 B   ---   --   ---xx   flac  0.5610  gd80-07-01 t17 Playin' In The Band.flac
     8:48.01       93141596 B   ---   --   ---xx   flac  0.5127  gd80-07-01 t18 Drums.flac
     6:05.54       64513052 B   ---   --   ---xx   flac  0.5183  gd80-07-01 t19 Space.flac
     8:33.70       90657884 B   ---   --   ---xx   flac  0.5700  gd80-07-01 t20 Truckin'.flac
    10:25.43      110351180 B   ---   --   ---xx   flac  0.5472  gd80-07-01 t21 Wharf Rat.flac
     4:09.08       43942460 B   ---   --   ---xx   flac  0.5713  gd80-07-01 t22 Around & Around.flac
     7:12.38       76294220 B   ---   --   ---xx   flac  0.5837  gd80-07-01 t23 Good Lovin'.flac
     5:08.09       54352412 B   ---   --   ---xx   flac  0.5646  gd80-07-01 t24 Alabama Getaway.flac
     4:22.26       46277996 B   ---   --   ---xx   flac  0.5823  gd80-07-01 t25 Promised Land.flac
   180:35.22     1911346844 B                            0.5719  (25 files)



Show Checksums
ffp
gd80-07-01 t01 Tuning.flac:b7a9790b8995b3a1984c1125f5de2eab
gd80-07-01 t02 Jack Straw.flac:3905bfc8534488f845401dfbaecc07a3
gd80-07-01 t03 Franklin's Tower.flac:54d051db8a5301166297f95decf1ec0a
gd80-07-01 t04 El Paso.flac:f8fc479e061c2c21c6ef3e1f85678f33
gd80-07-01 t05 Tennessee Jed.flac:47284e4cfaa0fc719bbf62af0f777aea
gd80-07-01 t06 Lazy Lightning.flac:759522fd6298604f0fa317f02267441e
gd80-07-01 t07 Supplication.flac:f3aa56b519cb4e26295ddc11476fb076
gd80-07-01 t08 Althea.flac:db39cff2707d1ee8656c7c1877dcfd36
gd80-07-01 t09 Lost Sailor.flac:e9a57f7b16e2aa44baad7742ec6cf21e
gd80-07-01 t10 Saint Of Circumstance.flac:5b12db4197d4aa5479e908b68ea92eb9
gd80-07-01 t11 China Cat Sunflower.flac:e2eb6cb52803f1e47bb28af94a6a1f4a
gd80-07-01 t12 I Know You Rider.flac:291450bff3060e205c622479b56ff9e9
gd80-07-01 t13 CC Rider.flac:d84cf996f8f5dfe4e3468fa8c63651c5
gd80-07-01 t14 Peggy O.flac:e13b20b1f4ea7a5a5190e0249c093fcb
gd80-07-01 t15 Far From Me.flac:4f3b944df40de34a9a36be6b52dce323
gd80-07-01 t16 Uncle John's Band.flac:336e7a1545efd52af568eeb8722d5901
gd80-07-01 t17 Playin' In The Band.flac:535952abc981893ae33635807c123349
gd80-07-01 t18 Drums.flac:7b76edea695bb252f23dac514bb1a006
gd80-07-01 t19 Space.flac:60636586eddd37d27061c37259cd5afe
gd80-07-01 t20 Truckin'.flac:833fb362810de7ddd4becd855b191eb0
gd80-07-01 t21 Wharf Rat.flac:015b80b936bf7669d37cf3bf9780a998
gd80-07-01 t22 Around & Around.flac:6e40e2a9c83822c54878376ff8e19a55
gd80-07-01 t23 Good Lovin'.flac:29cc2ebf7c1f60092a70b03194d5920f
gd80-07-01 t24 Alabama Getaway.flac:f1f08a4238918a3448917c8704295d8e
gd80-07-01 t25 Promised Land.flac:18e6a1ffc5a6933e329d2d97f186c20d
flac-md5
e38cb239467343857c5168a73261eb9c *gd80-07-01 t01 Tuning.flac
b61f298f9f504ccdc1ff6225bbc760dc *gd80-07-01 t02 Jack Straw.flac
7e6e3d59d71318136e3118b22ce5d34f *gd80-07-01 t03 Franklin's Tower.flac
c6c237a9fb5b1d36ff67c79cbd3d28fb *gd80-07-01 t04 El Paso.flac
fabcd3ce75cfd64e68cda77bab07b075 *gd80-07-01 t05 Tennessee Jed.flac
9aad123b82632ffbeb08845d5a5fcf88 *gd80-07-01 t06 Lazy Lightning.flac
540653fb876677b8b23c39e866659c16 *gd80-07-01 t07 Supplication.flac
ec557ac2c063ef068e9af43e5c8a037f *gd80-07-01 t08 Althea.flac
5c08c4a2b9e63776f7c2eb98905e2039 *gd80-07-01 t09 Lost Sailor.flac
6805a337f6314157eff3aa6149daa468 *gd80-07-01 t10 Saint Of Circumstance.flac
cd73f53ecb57ab9399d5683c94f2d6b6 *gd80-07-01 t11 China Cat Sunflower.flac
22d85d07decb8430cdfa49e707f9074e *gd80-07-01 t12 I Know You Rider.flac
904f9b611d45ab452e2328666e7e9986 *gd80-07-01 t13 CC Rider.flac
51ac20222d84e546f4d4be0976feee4a *gd80-07-01 t14 Peggy O.flac
d53afe03958ebd948737fd4ca6f6d18f *gd80-07-01 t15 Far From Me.flac
2574841b984cdab9045cb0104083badb *gd80-07-01 t16 Uncle John's Band.flac
5169462c3e7161cb4a3e8e03d5c19735 *gd80-07-01 t17 Playin' In The Band.flac
017b9de68529e0b84c728604a7076084 *gd80-07-01 t18 Drums.flac
0a17815df4dec3858360270ed6cb3d17 *gd80-07-01 t19 Space.flac
7d1b91fce43d0135e43516281461b58e *gd80-07-01 t20 Truckin'.flac
6fb5ebfdb5e8b18a27cf93efb3801cb1 *gd80-07-01 t21 Wharf Rat.flac
6c80dfb587990ef476950839fea00ac0 *gd80-07-01 t22 Around & Around.flac
2959006d8f1943814ca4836d461fa79f *gd80-07-01 t23 Good Lovin'.flac
5e0dfc2613d4123a23d9e3a11ccfe76d *gd80-07-01 t24 Alabama Getaway.flac
310b9ba64297d20b34b5d0961bd6932e *gd80-07-01 t25 Promised Land.flac

Comments
Add Comment
Other Sources (comments)
sbd>?>dat; there are... (0) flac16; Source: SBD... (0) flac16; Source:... (0) flac16: unknown... (0) flac16; source: sbd;... (0) flac24; source: sbd;... (0)
Date User Comment