Browse Collections Artists Sources   Search Dates

Add Show    List Management    Help


Garcia 02/23/80
The Tower Theatre, Upper Darby, PA
Comments Add Comment    Source Collectors    Add to Collection    Add to Want List    History
Source # 141397 Other Sources
Entered by Joe Jupille
Checksums jgb1980-02-23.ffp , jgb1980-02-23.md5
Disc Counts 0 / 0
Media Size Compressed: 476.63 MB (499785728 bytes)
Uncompressed: 826.02 MB (866140772 bytes)
Date Circulated
Date Added
03/17/2018
03/17/2018
Source Summary JGB, flac1644, Late Show; Source: AUD of unknown lineage > ? > Cassette rescued from Ebay. Transfer: Maxell XLII-90 > Nakamichi CR-5A > Edirol FA-66 > Wavelab 2448 > R8Brain SRC > Wavelab (adding 16-bit patch) > CD-Wave > TLH > FLAC 1644 tagged. Transferred by Andrew F. 03/2018 
Source Information - Download Text | Download Zip
JERRY GARCIA BAND
Tower Theater
Upper Darby PA
02-23-1980
Late Show

01 Sugaree
02 The Harder They Come
03 Russian Lullaby
04 Tore Up Over You
05 Midnight Moonlight
06 Encore: When I Paint My Masterpiece
07 Early show filler: Positively 4th Street

Source: AUD of unknown lineage > ? > Cassette rescued from Ebay.

Transfer: Maxell XLII-90 > Nakamichi CR-5A > Edirol FA-66 > Wavelab
2448 > R8Brain SRC > Wavelab (adding 16-bit patch) > CD-Wave > TLH >
FLAC 1644 tagged. Transferred by Andrew F. 03/2018

Note: This recording does not match any of the current sources. Gain
increases gradually at start of show. Patch from ID-35179 in Midnight
Moonlight 6:27 > 6:32. Thanks to Tom Markson for liberating this tape!


    length     expanded size    cdr  WAVE problems  fmt   ratio  filename
    16:18.53      172643900 B   ---   --   ---xx   flac  0.5708  jgb1980-02-23t01.flac
    12:07.70      128407484 B   ---   --   ---xx   flac  0.5653  jgb1980-02-23t02.flac
    15:04.07      159482108 B   ---   --   ---xx   flac  0.5460  jgb1980-02-23t03.flac
     8:03.61       85344716 B   ---   --   ---xx   flac  0.6049  jgb1980-02-23t04.flac
     7:42.72       81666188 B   ---   --   ---xx   flac  0.6080  jgb1980-02-23t05.flac
     9:51.00      104252444 B   ---   --   ---xx   flac  0.5934  jgb1980-02-23t06.flac
    12:41.44      134343932 B   ---   --   ---xx   flac  0.5836  jgb1980-02-23t07.flac
    81:50.07      866140772 B                            0.5770  (7 files)

No errors occured.


Show Checksums
jgb1980-02-23.ffp
jgb1980-02-23t01.flac:33afbee1b2621dd142f2137351091956
jgb1980-02-23t02.flac:84f69009f16b81caaee659a6420d5d21
jgb1980-02-23t03.flac:89f302b13b27bafaf63b37dd18fd42ff
jgb1980-02-23t04.flac:bbe7c3dc0abacd7856cc5ce51cf07383
jgb1980-02-23t05.flac:bd90f707886580800396d42f28c37421
jgb1980-02-23t06.flac:8f88167fae1d4875f010609b1f94da4c
jgb1980-02-23t07.flac:5b5ef79f6e5f77119c61a16ad6e06253
jgb1980-02-23.md5
810fc7e6e533c90acc5d1c6fa4b94193 *jgb1980-02-23t01.flac
18da453d1deadf4e66c5d8f0fad02c65 *jgb1980-02-23t02.flac
11c09f9031c2137af1dc6753d56eef6c *jgb1980-02-23t03.flac
21b8ec46b5340e2f28f0b861364ccf64 *jgb1980-02-23t04.flac
92ce58b8edf053748d1045c95dd3cb35 *jgb1980-02-23t05.flac
218ad107c26e88f62d1846c2d5f19b87 *jgb1980-02-23t06.flac
f25bbce2d41d90d0c38ceb13b13bd0f3 *jgb1980-02-23t07.flac

Comments
Add Comment
Other Sources (comments)
Jerry Garcia Band: Early &... (0) JGB, Late Show: Charlie... (0) JGB, early show: aud > old... (0) early and late shows;... (0) JGB; flac1644; early and... (0)
Date User Comment