Browse Collections Artists Sources   Search Dates

Add Show    List Management    Help


Grateful Dead 07/13/81
McNichols Sports Arena, Denver, CO
Comments Add Comment    Source Collectors    Add to Collection    Add to Want List    History
Source # 141402 Other Sources
Entered by Matt Vernon
Checksums ffp , flac-md5
Disc Counts 0 / 0
Media Size
Date Circulated
Date Added
03/18/2018
03/18/2018
Source Summary flac16; Source Info: Dan Healy's Master Soundboard Cassettes (Sony TC-D5M/TDK MA-R90) > Frank Streeter's Reel to Reel @ 3.75 ips (Sony TC770/Maxell UD35-90B) > Tim Dalton's PCM (Sony SLHF400/Sony HG betamax tape); Transfer Info: PCM (Sony SL-10)> Sony PCM-601ESD > Behringer Ultramatch Pro > Tascam DA-3000 (wav 16-bit/44.1k)> Adobe Audition 3.0 > TLH flac16 
  Archive
Source Information - Download Text | Download Zip
Grateful Dead
McNichols Sports Arena
Denver, CO
Monday July 13, 1981

Source Info:
Dan Healy's Master Soundboard Cassettes (Sony TC-D5M/TDK MA-R90) > Frank Streeter's Reel to Reel @ 3.75 ips (Sony TC770/Maxell UD35-90B) > Tim Dalton's PCM (Sony SLHF400/Sony HG betamax tape)

Transfer Info:
PCM (Sony SL-10)> Sony PCM-601ESD > Behringer Ultramatch Pro > Tascam DA-3000 (wav 16-bit/44.1k)> Adobe Audition 3.0 > TLH flac16

Notes:
- Thanks to Tim Dalton for the source PCM
- Thanks to Charlie Miller for the transfer
- Thanks to Brian Schley and Andrew F for the shnid13570 Nakamichi 300 source that supplies a 0:13 patch in "Terrapin Station", as well as a 0:16 patch in the transition between "Black Peter" and "Sugar Magnolia"
- Beginning of "Feel Like A Stranger" clipped (no patch source available)
- Beginning of "They Love Each Other" clipped (no patch source available)
- NFA space included in "Not Fade Away"
- Levels smoothed
- Transitions smoothed

Mastered by Scott Clugston
March 17, 2018

Set One:
t01 - //Feel Like A Stranger
t02 - "We're changing a speaker...."
t03 - //They Love Each Other >
t04 - El Paso
t05 - Jack-A-Roe >
t06 - Beat It On Down The Line
t07 - It Must Have Been The Roses >
t08 - CC Rider
t09 - Althea >
t10 - Looks Like Rain >
t11 - Deal

Set Two:
t12 - Man Smart (Woman Smarter) >
t13 - Scarlet Begonias >
t14 - Fire On The Mountain >
t15 - Estimated Prophet >
t16 - Terrapin Station > Jam >
t17 - Drums >
t18 - Not Fade Away >
t19 - Black Peter >
t20 - Sugar Magnolia
t21 - Encore Break
t22 - Satisfaction



    length     expanded size    cdr  WAVE problems  fmt   ratio  filename
     6:32.44       69252332 B   ---   --   ---xx   flac  0.6786  gd81-07-13 t01 Feel Like A Stranger.flac
     2:00.71       21335036 B   ---   --   ---xx   flac  0.5771  gd81-07-13 t02 We're Changing A Speaker.flac
     6:50.00       72324044 B   ---   --   ---xx   flac  0.6766  gd81-07-13 t03 They Love Each Other.flac
     6:18.55       66808604 B   ---   --   ---xx   flac  0.6559  gd81-07-13 t04 El Paso.flac
     4:03.06       42879356 B   ---   --   ---xx   flac  0.7130  gd81-07-13 t05 Jack-A-Roe.flac
     4:33.74       48331292 B   ---   --   ---xx   flac  0.6670  gd81-07-13 t06 Beat It On Down The Line.flac
     6:41.53       70861100 B   ---   --   ---xx   flac  0.6573  gd81-07-13 t07 It Must Have Been The Roses.flac
     7:53.09       83458412 B   ---   --   ---xx   flac  0.6809  gd81-07-13 t08 CC Rider.flac
     8:29.03       89794700 B   ---   --   ---xx   flac  0.6727  gd81-07-13 t09 Althea.flac
     8:36.42       91121228 B   ---   --   ---xx   flac  0.6586  gd81-07-13 t10 Looks Like Rain.flac
     8:18.70       88011884 B   ---   --   ---xx   flac  0.6859  gd81-07-13 t11 Deal.flac
     4:55.66       52193276 B   ---   --   ---xx   flac  0.6768  gd81-07-13 t12 Man Smart (Woman Smarter).flac
     9:31.08      100743260 B   ---   --   ---xx   flac  0.6648  gd81-07-13 t13 Scarlet Begonias.flac
     9:38.60      102100364 B   ---   --   ---xx   flac  0.6556  gd81-07-13 t14 Fire On The Mountain.flac
    10:04.63      106693820 B   ---   --   ---xx   flac  0.6409  gd81-07-13 t15 Estimated Prophet.flac
    14:10.70      150104684 B   ---   --   ---xx   flac  0.6243  gd81-07-13 t16 Terrapin Station_Jam.flac
     5:54.30       62516204 B   ---   --   ---xx   flac  0.6031  gd81-07-13 t17 Drums.flac
     8:55.63       94522220 B   ---   --   ---xx   flac  0.6205  gd81-07-13 t18 Not Fade Away.flac
     9:00.60       95397164 B   ---   --   ---xx   flac  0.6069  gd81-07-13 t19 Black Peter.flac
     8:56.08       94569260 B   ---   --   ---xx   flac  0.6773  gd81-07-13 t20 Sugar Magnolia.flac
     0:55.59        9840812 B   ---   --   ---xx   flac  0.5361  gd81-07-13 t21 Encore Break.flac
     5:54.28       62511500 B   ---   --   ---xx   flac  0.6872  gd81-07-13 t22 Satisfaction.flac
   158:17.42     1675370552 B                            0.6547  (22 files)


Show Checksums
ffp
gd81-07-13 t01 Feel Like A Stranger.flac:47c308cdaf06b26e0518d82c88afe8a9
gd81-07-13 t02 We're Changing A Speaker.flac:3bc8510f7375fc2890d7b32511c9bb01
gd81-07-13 t03 They Love Each Other.flac:9f76a5ccaf59fa835c4364cbf68283d4
gd81-07-13 t04 El Paso.flac:6840cae948a29f8e5f0d8160848c715d
gd81-07-13 t05 Jack-A-Roe.flac:78345b8ca8aaac15405aa7c761886a8a
gd81-07-13 t06 Beat It On Down The Line.flac:910c60a0f6f08cfc282726e2a82452c8
gd81-07-13 t07 It Must Have Been The Roses.flac:a818dc50026ad77def654f39a57f0697
gd81-07-13 t08 CC Rider.flac:b2848e5ec0cc148ed269b2781f9aabda
gd81-07-13 t09 Althea.flac:751c532ff68f610853fb5fc37fd70aed
gd81-07-13 t10 Looks Like Rain.flac:226085e840ef0823e712bcd236dc5bc6
gd81-07-13 t11 Deal.flac:07742f227b0699e10cabdbda890e84fb
gd81-07-13 t12 Man Smart (Woman Smarter).flac:b25ef54841ed2acfaf94d9c032b6cc66
gd81-07-13 t13 Scarlet Begonias.flac:3de59b20390528154af3e3a90cf2e956
gd81-07-13 t14 Fire On The Mountain.flac:f18bcaef958558f12e2ddad5cd3e4174
gd81-07-13 t15 Estimated Prophet.flac:b4b222062930bf838de17209d44f34b1
gd81-07-13 t16 Terrapin Station_Jam.flac:e86d31fc554f3491870bc9b823d41966
gd81-07-13 t17 Drums.flac:3791962017de6bb4a11f478bc902d9aa
gd81-07-13 t18 Not Fade Away.flac:b4a1675217bfb5a7bec61c2fd89146da
gd81-07-13 t19 Black Peter.flac:e70277df841c1e15750fc2c5ce99d6f6
gd81-07-13 t20 Sugar Magnolia.flac:a82b42fb77c021633fa9c40bd4fe63b9
gd81-07-13 t21 Encore Break.flac:aa1d97a1d5302c680fa3839c5135e5a7
gd81-07-13 t22 Satisfaction.flac:8e4e1462ddfe3eff731edbe7e6e6bf55
flac-md5
eedf2165597e258262f788cd69dbce10 *gd81-07-13 t01 Feel Like A Stranger.flac
a61d0fbcae0b44889b913b496f52d5ff *gd81-07-13 t02 We're Changing A Speaker.flac
b1e3d0faaea7ff84e88cf76317517d32 *gd81-07-13 t03 They Love Each Other.flac
d02268285a92ae0a6bc79e0c687a709a *gd81-07-13 t04 El Paso.flac
53128e4ae76e2a9311cb316401d84150 *gd81-07-13 t05 Jack-A-Roe.flac
5734970f3b6d70eaa76588ab7a7e37b9 *gd81-07-13 t06 Beat It On Down The Line.flac
2aeaa1f420dae57d0e905cf0d1b71cbd *gd81-07-13 t07 It Must Have Been The Roses.flac
cb3b70192c51532c06906d91daf14f29 *gd81-07-13 t08 CC Rider.flac
3cb2b25c0efcd8f6b184342428b7c294 *gd81-07-13 t09 Althea.flac
e07662c92ebf7f4c22e1d031401c1000 *gd81-07-13 t10 Looks Like Rain.flac
3415e9b2afdd7e8a4eca3fe222382b42 *gd81-07-13 t11 Deal.flac
111e5f721dc27c98fb5100ce1dbbfee0 *gd81-07-13 t12 Man Smart (Woman Smarter).flac
9b741bef653d3700626133720e592b17 *gd81-07-13 t13 Scarlet Begonias.flac
e4ec9850ef59a63f385175a803382153 *gd81-07-13 t14 Fire On The Mountain.flac
4a1e6ac43359b503a8729932d61f1828 *gd81-07-13 t15 Estimated Prophet.flac
07276e8e49c1879bf1c7a4596ddd8bbf *gd81-07-13 t16 Terrapin Station_Jam.flac
1995f091f237f73c9845829eddb7de78 *gd81-07-13 t17 Drums.flac
5d13cc75456ff4d5c470462de48bf865 *gd81-07-13 t18 Not Fade Away.flac
52e05071b16542a84dbd98a81b01a384 *gd81-07-13 t19 Black Peter.flac
323f3e78bfb50a4472b2aec05c25a910 *gd81-07-13 t20 Sugar Magnolia.flac
5de66a8b1eda9fac8bd8043b208b353e *gd81-07-13 t21 Encore Break.flac
3a7166be71561b997a020c1ef54c87f5 *gd81-07-13 t22 Satisfaction.flac

Comments
Add Comment
Other Sources (comments)
SBD; via Mike Lai (1) flac16; Recording... (0) flac24; Set 2... (0) flac16; Set 2... (0) flac24; AUD:... (0) flac16; AUD:... (0) flac24; source: SBD;... (0) flac16; source: SBD;... (0)
Date User Comment