Browse Collections Artists Sources   Search Dates

Add Show    List Management    Help


Grateful Dead 12/02/71
Music Hall, Boston, MA
Comments Add Comment    Source Collectors    Add to Collection    Add to Want List    History
Source # 141425 Other Sources
Entered by Matt Vernon
Checksums ffp , flac-md5
Disc Counts 0 / 0
Media Size
Date Circulated
Date Added
03/21/2018
03/21/2018
Source Summary flac24; Source Info: FM Broadcast (WBCN Boston); Master Reel to Reel > Matt Smith's 1st generation Reels; Transfer Info: 1st generation reels ((Technics RS-1506) > Tascam DA-3000 (DSF 1-bit/5.6 MHz) > dBpoweramp 24/96 > Adobe Audition 3.0 24/96 > TLH flac2496 
  Archive
Source Information - Download Text | Download Zip
Grateful Dead
Music Hall
Boston MA
Thursday December 2, 1971

Source Info:
FM Broadcast (WBCN Boston); Master Reel to Reel > Matt Smith's 1st generation Reels

Transfer Info:
1st generation reels ((Technics RS-1506) > Tascam DA-3000 (DSF 1-bit/5.6 MHz) > dBpoweramp 24/96 > Adobe Audition 3.0 24/96 > TLH flac2496

Notes:
- Thanks to Matt Smith for the 1st generation reel source and the transfer
- Thanks to Charlie Miller for coordinating this effort
- Based on this copy, we now know, that the majority of what we thought were tape flips on previous versions, were actually the editing of the radio station id's and between song banter/tunings. Previous versions had cuts at the beginning of "Black Peter", the end of Sunshine Daydream, in the middle of "Deal" and in the transition between "Turn On Your Lovelight > Going Down The road Feeling Bad". The only cut remaining is the one in the middle of "Deal" and we also now know that there was no "gozinta" from Lovelight> GDTRFB. Lovelight ends, there's a radio station id and then GDTRFB starts. This transcription also contains most, if not all, of the between song banter and tunings
- Upgrade to all circulating copies (3/21/2018)

Mastered by Scott Clugston
March 21, 2018

Set One:
s1 t01 - Intro
s1 t02 - Bertha
s1 t03 - Equipment Malfunction
s1 t04 - Playin' In The Band
s1 t05 - Mr. Charlie
s1 t06 - Sugaree
s1 t07 - Beat It On Down The Line
s1 t08 - Black Peter
s1 t09 - Next Time You See Me
s1 t10 - Dead Air
s1 t11 - Jack Straw
s1 t12 - Tennessee Jed
s1 t13 - Mexicali Blues
s1 t14 - Tuning
s1 t15 - Smokestack Lightning
s1 t16 - Big Railroad Blues
s1 t17 - Casey Jones
s1 t18 - One More Saturday Night

Set Two:
s2 t01 - Tuning
s2 t02 - Sugar Magnolia
s2 t03 - Name that Tune
s2 t04 - De//al
s2 t05 - El Paso
s2 t06 - Brokedown Palace
s2 t07 - Tuning
s2 t08 - Uncle John's Band
s2 t09 - Tuning
s2 t10 - Not Fade Away >
s2 t11 - Turn On Your Lovelight
s2 t12 - Going Down The Road Feeling Bad >
s2 t13 - Not Fade Away
s2 t14 - Johnny B. Goode



    length     expanded size    cdr  WAVE problems  fmt   ratio  filename
     1:33.133      53644844 B   cxx   --   ---xx   flac  0.6428  gd71-12-02 s1 t01 Intros.flac
     6:03.973     209648684 B   cxx   --   ---xx   flac  0.7008  gd71-12-02 s1 t02 Bertha.flac
     1:32.933      53529644 B   cxx   --   ---xx   flac  0.6365  gd71-12-02 s1 t03 Equipment Difficulties.flac
     7:33.560     261250604 B   cxx   --   ---xx   flac  0.6809  gd71-12-02 s1 t04. Playin' In The Band.flac
     4:02.080     139438124 B   cxx   --   ---xx   flac  0.6812  gd71-12-02 s1 t05 Mr. Charlie.flac
     8:29.920     293713964 B   cxx   --   ---xx   flac  0.6756  gd71-12-02 s1 t06 Sugaree.flac
     3:09.547     109178924 B   cxx   --   ---xx   flac  0.6943  gd71-12-02 s1 t07 Beat It On Down The Line.flac
     9:19.533     322291244 B   cxx   --   ---xx   flac  0.6624  gd71-12-02 s1 t08 Black Peter.flac
     4:27.773     154237484 B   cxx   --   ---xx   flac  0.6852  gd71-12-02 s1 t09 Next Time You See Me.flac
     3:02.813     105300524 B   cxx   --   ---xx   flac  0.6392  gd71-12-02 s1 t10 Dead Air.flac
     5:49.840     201507884 B   cxx   --   ---xx   flac  0.6760  gd71-12-02 s1 t11 Jack Straw.flac
     7:03.907     244170284 B   cxx   --   ---xx   flac  0.6795  gd71-12-02 s1 t12 Tennessee Jed.flac
     3:32.373     122327084 B   cxx   --   ---xx   flac  0.6830  gd71-12-02 s1 t13 Mexicali Blues.flac
     1:41.747      58606124 B   cxx   --   ---xx   flac  0.6292  gd71-12-02 s1 t14 Tuning.flac
    10:25.733     360422444 B   cxx   --   ---xx   flac  0.6673  gd71-12-02 s1 t15 Smokestack Lightning.flac
     5:43.987     198136364 B   cxx   --   ---xx   flac  0.6770  gd71-12-02 s1 t16 Big Railroad Blues.flac
     6:46.213     233978924 B   cxx   --   ---xx   flac  0.6758  gd71-12-02 s1 t17 Casey Jones.flac
     4:40.463     161546534 B   cxx   --   ---xx   flac  0.6823  gd71-12-02 s1 t18 One More Saturday Night.flac
     0:58.120      33477164 B   cxx   --   ---xx   flac  0.6457  gd71-12-02 s2 t01 Tuning.flac
     6:54.787     238917164 B   cxx   --   ---xx   flac  0.6821  gd71-12-02 s2 t02 Sugar Magnolia.flac
     2:45.120      95109164 B   cxx   --   ---xx   flac  0.6472  gd71-12-02 s2 t03 Name That Tune.flac
     6:37.720     229086764 B   cxx   --   ---xx   flac  0.6718  gd71-12-02 s2 t04 Deal.flac
     4:55.867     170419244 B   cxx   --   ---xx   flac  0.6700  gd71-12-02 s2 t05 El Paso.flac
     5:33.893     192322604 B   cxx   --   ---xx   flac  0.6674  gd71-12-02 s2 t06 Brokedown Palace.flac
     1:31.213      52538924 B   cxx   --   ---xx   flac  0.6431  gd71-12-02 s2 t07 Tuning.flac
     8:01.227     277186604 B   cxx   --   ---xx   flac  0.6778  gd71-12-02 s2 t08 Uncle John's Band.flac
     2:07.027      73167404 B   cxx   --   ---xx   flac  0.6427  gd71-12-02 s2 t09 Tuning.flac
     6:29.280     224225324 B   cxx   --   ---xx   flac  0.6785  gd71-12-02 s2 t10 Not Fade Away.flac
    18:45.133     648076844 B   cxx   --   ---xx   flac  0.6755  gd71-12-02 s2 t11 Turn On Your Lovelight.flac
     7:32.840     260835884 B   cxx   --   ---xx   flac  0.6683  gd71-12-02 s2 t12 Goin' Down The Road Feeling Bad.flac
     3:03.920     105937964 B   cxx   --   ---xx   flac  0.6722  gd71-12-02 s2 t13 Not Fade Away.flac
     4:16.476     147730478 B   cxx   --   ---xx   flac  0.6737  gd71-12-02 s2 t14 Johnny B. Goode.flac
   174:32.152    6031961212 B                            0.6732  (32 files)


Show Checksums
ffp
gd71-12-02 s1 t01 Intros.flac:51ab442a4ac0b7f88f205b36e2671b77
gd71-12-02 s1 t02 Bertha.flac:548938e58ffa2ca5cd87a4bd63bee5f8
gd71-12-02 s1 t03 Equipment Difficulties.flac:3383a2c510a8df69646771dc25320b23
gd71-12-02 s1 t04. Playin' In The Band.flac:eead2db92614f3325d8a75ff88e311ef
gd71-12-02 s1 t05 Mr. Charlie.flac:d103fb50ebb88c74b428f38fbbd7a8f9
gd71-12-02 s1 t06 Sugaree.flac:264ffc14b49e4bf5d56700b1f1a462f7
gd71-12-02 s1 t07 Beat It On Down The Line.flac:da6e9bcf5a7da52ba34e8c6559a6a351
gd71-12-02 s1 t08 Black Peter.flac:fa2d5b92b180d35bb6287348156d4230
gd71-12-02 s1 t09 Next Time You See Me.flac:7a4aeee1fbec272b6ebcc6478a264ae3
gd71-12-02 s1 t10 Dead Air.flac:9990e092662430eeb7c4fbb9ede8138c
gd71-12-02 s1 t11 Jack Straw.flac:da832581a4eb2d2c430372521b009165
gd71-12-02 s1 t12 Tennessee Jed.flac:cd13294ad72b04b6e6cd1b9941d04884
gd71-12-02 s1 t13 Mexicali Blues.flac:9f1c305d9103f852e44cfb927119f6f0
gd71-12-02 s1 t14 Tuning.flac:61d4205b032f70185141b0ea023dec47
gd71-12-02 s1 t15 Smokestack Lightning.flac:ebb354eeb505e9587cc0a08cdcaddfd8
gd71-12-02 s1 t16 Big Railroad Blues.flac:de10fe261ddfcae82cf70e6b47ba33f5
gd71-12-02 s1 t17 Casey Jones.flac:96a494af8b0400d57d53c94a0aa270b4
gd71-12-02 s1 t18 One More Saturday Night.flac:428ab40e64ebfdd2176fe0095e08cc7c
gd71-12-02 s2 t01 Tuning.flac:c7c7c41a58495043dec6b8ab1ef4c25c
gd71-12-02 s2 t02 Sugar Magnolia.flac:474babe599001dc6fbbac4a9a32618b7
gd71-12-02 s2 t03 Name That Tune.flac:b0ac520e546f749539d308c5954c49d0
gd71-12-02 s2 t04 Deal.flac:4f60557e1fccc9212b9caa020c0a414b
gd71-12-02 s2 t05 El Paso.flac:0ca820020fe525045b451039787f0713
gd71-12-02 s2 t06 Brokedown Palace.flac:0545401db627601b1ed073c5a64b2191
gd71-12-02 s2 t07 Tuning.flac:fdb7ea8a1fdc2a4e9e12cf7c06c7d05f
gd71-12-02 s2 t08 Uncle John's Band.flac:35132c3d967d12d4f825e583e58438dc
gd71-12-02 s2 t09 Tuning.flac:4800acfb60b33c010f704971029c011d
gd71-12-02 s2 t10 Not Fade Away.flac:049d6e5a582b2de6584c90bf3d4373cd
gd71-12-02 s2 t11 Turn On Your Lovelight.flac:8cdb10bb2c3045504d19f157dfb0245c
gd71-12-02 s2 t12 Goin' Down The Road Feeling Bad.flac:e42985bfe4bd6c9607dadee8ea28688e
gd71-12-02 s2 t13 Not Fade Away.flac:8e9b4f17f083c6b1693a213b6b8ae68f
gd71-12-02 s2 t14 Johnny B. Goode.flac:a4e0e373c6f6dc805c4d50d424773be1
flac-md5
32dd0096a4c393c6f1711ea75b940e22 *gd71-12-02 s1 t01 Intros.flac
d7f0430ae92776d2a0c408b13a54a3b9 *gd71-12-02 s1 t02 Bertha.flac
97192988000b098e0715408ca8f8a09f *gd71-12-02 s1 t03 Equipment Difficulties.flac
76e7c309b84ad4c96dbaf83d24ff0b88 *gd71-12-02 s1 t04. Playin' In The Band.flac
91c33840e696c07ba019d1573665955e *gd71-12-02 s1 t05 Mr. Charlie.flac
53f752d9b902ff7b44def0ec94ca129a *gd71-12-02 s1 t06 Sugaree.flac
47449a3b4bf5ddb33110fcf5cf12cd2e *gd71-12-02 s1 t07 Beat It On Down The Line.flac
1adfea5e99d3efeda00c9ce28a7bbfcd *gd71-12-02 s1 t08 Black Peter.flac
d524426bbc60583a12e6f835906b16d8 *gd71-12-02 s1 t09 Next Time You See Me.flac
2b6c024056c3b25cbf5bf9cd38e63163 *gd71-12-02 s1 t10 Dead Air.flac
c17f5dadf2c4b00761ad89de73f7a694 *gd71-12-02 s1 t11 Jack Straw.flac
045c0f18224d630bbf060f865046dad7 *gd71-12-02 s1 t12 Tennessee Jed.flac
9104f87ab58f943f6343a950605fcde6 *gd71-12-02 s1 t13 Mexicali Blues.flac
51ce7ee2d5a1fe90ef05a86771cf4a28 *gd71-12-02 s1 t14 Tuning.flac
59a20191528d6395003b076c96f6b43b *gd71-12-02 s1 t15 Smokestack Lightning.flac
0ba4281edbba716b0a349d124dff146d *gd71-12-02 s1 t16 Big Railroad Blues.flac
c97aca2fa973456f31adc29cf1720554 *gd71-12-02 s1 t17 Casey Jones.flac
a71084c266f3bb09c182b543717574a6 *gd71-12-02 s1 t18 One More Saturday Night.flac
b4122c8e90721a1594da88b895545d3c *gd71-12-02 s2 t01 Tuning.flac
7ba4b4782096b218e51f1df6c18f8727 *gd71-12-02 s2 t02 Sugar Magnolia.flac
94d1e85c222c47e6a35bf7163b9bf5e1 *gd71-12-02 s2 t03 Name That Tune.flac
4c8e4aa49b4ab90fc877faee40ec89e0 *gd71-12-02 s2 t04 Deal.flac
bab93c2560293a1b4fa438e611f2e003 *gd71-12-02 s2 t05 El Paso.flac
f11f92899751da2bfe9065ef5f6e7f47 *gd71-12-02 s2 t06 Brokedown Palace.flac
30ed9eef3e5028fc2b6c9fea2e3e00da *gd71-12-02 s2 t07 Tuning.flac
3181fd17f02d0070bae61a1eaa160ecb *gd71-12-02 s2 t08 Uncle John's Band.flac
1ee61bff9e2c2a4e19ac1ff2e4be1350 *gd71-12-02 s2 t09 Tuning.flac
88b8ba4fb062d36e3118bd4cf615c1f9 *gd71-12-02 s2 t10 Not Fade Away.flac
d2666bdfde4764c68a68fd35b2514a9a *gd71-12-02 s2 t11 Turn On Your Lovelight.flac
de564dcfedc13dc9b4fdfb3cabb3e81b *gd71-12-02 s2 t12 Goin' Down The Road Feeling Bad.flac
238552998fa3080a6ceea78d0256ea0a *gd71-12-02 s2 t13 Not Fade Away.flac
4591da3e17f8c022090a764c08296a3a *gd71-12-02 s2 t14 Johnny B. Goode.flac

Comments
Add Comment
Other Sources (comments)
SBD> MR> R> DAT> CDR; see... (1) flac16; Source Info:... (0) flac16; Source Info:... (0) flac16/48kHz; Source... (0) flac24; Source Info:... (0) flac16/48kHz; Set 2... (0)
Date User Comment