Browse Collections Artists Sources   Search Dates

Add Show    List Management    Help


Grateful Dead 07/10/81
St. Paul Civic Center, St. Paul, MN
Comments Add Comment    Source Collectors    Add to Collection    Add to Want List    History
Source # 141430 Other Sources
Entered by Matt Vernon
Checksums ffp , flac-md5
Disc Counts 0 / 0
Media Size Compressed: 1.15 MB (1205862 bytes)
Date Circulated
Date Added
03/22/2018
03/22/2018
Source Summary flac16/48kHz; Unknown audience > DAT @ 16/48; Editing, volume adjustments, fades and tracking with Audacity; Tagged with mp3tag; flac level 8 and checksums with traderslittlehelper 
  Archive
Source Information - Download Text | Download Zip
Grateful Dead
Friday, July 10, 1981
St. Paul Civic Center,
St. Paul, MN

Unknown audience > DAT @ 16/48
Editing, volume adjustments, fades and tracking with Audacity
Tagged with mp3tag
flac level 8 and checksums with traderslittlehelper

--Set One--
01 Jack Straw
02 Sugaree
03 Mama Tried >
04 Mexicali Blues
05 Loser
06 -tuning-
07 Cassidy
08 Brown Eyed Women >
09 C.C. Rider
10 Ramble On Rose
11 Let It Grow >
12 Don't Ease Me In

--Set Two--
01 Samson And Delilah
02 Althea
03 -tuning-
04 Estimated Prophet >
05 Eyes Of The World > Jam >
06 Drums >
07 Space >
08 Uncle John's Band >
09 Playin' In The Band >
10 China Doll >
11 Uncle John's Band Reprise >
12 Playin' In The Band Reprise >
13 Around And Around >
14 Good Lovin'
--Encore--
15 Casey Jones



   length     expanded size    cdr  WAVE problems  fmt   ratio  filename
     6:00.733      69260844 B   cxx   --   ---xx   flac  0.6202  01 - Jack Straw.flac
    12:06.733     139532844 B   cxx   --   ---xx   flac  0.6125  02 - Sugaree.flac
     2:30.387      28874284 B   cxx   --   ---xx   flac  0.6359  03 - Mama Tried.flac
     4:48.560      55403564 B   cxx   --   ---xx   flac  0.6248  04 - Mexicali Blues.flac
     7:09.453      82455084 B   cxx   --   ---xx   flac  0.6232  05 - Loser.flac
     1:55.707      22215724 B   cxx   --   ---xx   flac  0.5506  06 - -tuning-.flac
     5:06.547      58857004 B   cxx   --   ---xx   flac  0.6381  07 - Cassidy.flac
     5:30.507      63457324 B   cxx   --   ---xx   flac  0.6157  08 - Brown Eyed Women.flac
     7:58.613      91893804 B   cxx   --   ---xx   flac  0.6234  09 - CC Rider.flac
     7:52.427      90705964 B   cxx   --   ---xx   flac  0.6027  10 - Ramble On Rose.flac
    11:49.147     136156204 B   cxx   --   ---xx   flac  0.6327  11 - Let It Grow.flac
     3:21.907      38766124 B   cxx   --   ---xx   flac  0.6467  12 - Don't Ease Me In.flac
     6:43.000      77376044 B   cxx   --   ---xx   flac  0.6365  13 - Samson And Delilah.flac
     8:39.453      99735084 B   cxx   --   ---xx   flac  0.6113  14 - Althea.flac
     1:37.320      18685484 B   cxx   --   ---xx   flac  0.5251  15 - -tuning-.flac
    10:48.347     124482604 B   cxx   --   ---xx   flac  0.6095  16 - Estimated Prophet.flac
    14:49.373     170759724 B   cxx   --   ---xx   flac  0.6197  17 - Eyes Of The World.flac
    11:41.733     134732844 B   cxx   --   ---xx   flac  0.5875  18 - Drums.flac
     5:43.080      65871404 B   cxx   --   ---xx   flac  0.5568  19 - Space.flac
     7:27.093      85841964 B   cxx   --   ---xx   flac  0.6191  20 - Uncle John's Band.flac
     6:34.227      75691564 B   cxx   --   ---xx   flac  0.6081  21 - Playin' In The Band.flac
     5:36.173      64545324 B   cxx   --   ---xx   flac  0.5587  22 - China Doll.flac
     1:54.587      22000684 B   cxx   --   ---xx   flac  0.6194  23 - Uncle John's Band.flac
     1:48.627      20856364 B   cxx   --   ---xx   flac  0.6225  24 - Playin' In The Band.flac
     3:45.920      43376684 B   cxx   --   ---xx   flac  0.6128  25 - Around And Around.flac
     7:30.907      86574124 B   cxx   --   ---xx   flac  0.6193  26 - Good Lovin'.flac
     5:38.893      65067564 B   cxx   --   ---xx   flac  0.6083  27 - Casey Jones.flac
   176:29.453    2033176228 B                            0.6118  (27 files)




Show Checksums
ffp
01 - Jack Straw.flac:071cf678d35dba0120033ee9ca66a35c
02 - Sugaree.flac:1a1f70c23c204b30ee30e3fd4b2d68e1
03 - Mama Tried.flac:c9de44b0ab5d28e97e58b21fb8008202
04 - Mexicali Blues.flac:2c0b5b887857a8545f9effc1ddeae310
05 - Loser.flac:b15cc41cef673788f5da7543b8ba41be
06 - -tuning-.flac:5d994ba3a31c06523ffe6f8705d4e15f
07 - Cassidy.flac:a816321bd627b30373d1b946da67364d
08 - Brown Eyed Women.flac:ca2a494fe563502cbe724b718338d296
09 - CC Rider.flac:e3e69ca10607083adcfaa96eda2438a1
10 - Ramble On Rose.flac:234c4ab6a1cf22cdc956d9f36d8ee19b
11 - Let It Grow.flac:19172e2630d4147a23cc50b7fe3caa6b
12 - Don't Ease Me In.flac:157bb93ed52bd72a4e88759ecdf8843e
13 - Samson And Delilah.flac:98d2ae395c4fe3adc8ed80585d26a995
14 - Althea.flac:813e49e6cb748644e08d6788d4658883
15 - -tuning-.flac:a9355eb38d22e9e955ac38d7d5b1eb9c
16 - Estimated Prophet.flac:e426ef5651e1668d3d5b4b20330596f3
17 - Eyes Of The World.flac:acbcb7fbb0fc41f97d0d729f56024cd6
18 - Drums.flac:66f0ec7153a9c9d36b40d139f27e9633
19 - Space.flac:ce96e3d307432148a1d6de633d40787f
20 - Uncle John's Band.flac:811b9865a16f8bb7b063cc53addd7a3d
21 - Playin' In The Band.flac:2c056c283b63e7c081e8e42151f3a40d
22 - China Doll.flac:82a13568416bcdce3ce2cdd6b33a2508
23 - Uncle John's Band.flac:3b422efda39829a47b9cb4b19c2ec3a3
24 - Playin' In The Band.flac:1da1ddb1d901ab3a822a562c94ad3475
25 - Around And Around.flac:3729c28a8579313f8daceec6f6f373e8
26 - Good Lovin'.flac:41aff44f5c9eb3c659e09d48c466bb91
27 - Casey Jones.flac:6ccf829a2ed8f7b0452488d654a32d6d
flac-md5
d0673e3215714056a64b6ad7951522d5 *01 - Jack Straw.flac
7b55920b725114648f6c4b86b3196251 *02 - Sugaree.flac
175b91d324debb863c7b3df793d9cdbf *03 - Mama Tried.flac
752a5582658b556bfbcc4a7e2a9e4b7e *04 - Mexicali Blues.flac
ef74e491944ed8f7aaf1ef8e2b04541b *05 - Loser.flac
106c8dbb3ecedece32bdca2711962939 *06 - -tuning-.flac
deef661ba0c3ad58c9b34e6f983d3c5a *07 - Cassidy.flac
8f6a0848e2b05f930dec1d96d05382bb *08 - Brown Eyed Women.flac
a4b55883bd0ce982259489a6ee8dea4f *09 - CC Rider.flac
4553adc54692233bb307e5f5890ed171 *10 - Ramble On Rose.flac
a37027e5545115a964fca8bcca5e8e59 *11 - Let It Grow.flac
bdfdd029f7d12223dd6613154c9b2e0d *12 - Don't Ease Me In.flac
533cbb6da60f2a8691d6ec20b1401da8 *13 - Samson And Delilah.flac
fbc9e6efefb5a9ae4c9f40c4bd19f06c *14 - Althea.flac
bfc4e0cb2b74d32d3d9eef26298521d7 *15 - -tuning-.flac
3f64ba891bd328f88e08198e931bea19 *16 - Estimated Prophet.flac
c70c0ec4d7ff9e192581fb1017b2e9d1 *17 - Eyes Of The World.flac
9e48805243b93cf9679f42f4b95db68d *18 - Drums.flac
744dab066e726c5a951ed0f66ccc88f1 *19 - Space.flac
cf81ebd124befe1974464a253976b823 *20 - Uncle John's Band.flac
e85c25b152d2f157a2530f424b6d5603 *21 - Playin' In The Band.flac
5a7fb35983bc7f4c47726e7a4ed1a4c7 *22 - China Doll.flac
dd607ac6823ee131c3d2e931bbb2d863 *23 - Uncle John's Band.flac
dc760ef6a00636338b8f2af6ec602dfd *24 - Playin' In The Band.flac
fbc6b264af5a78343e54b7b06dd10aec *25 - Around And Around.flac
acbc32099756bc7c97c911d842a63b50 *26 - Good Lovin'.flac
9aa6194eb10bc881a8525952a151170f *27 - Casey Jones.flac

Comments
Add Comment
Other Sources (comments)
Originally mislabeled as... (0) Recording by Ohr Weinberg.... (2) flac16; Recording... (0) flac16; AUD: Unknown... (0) flac24; 2nd Set AUD:... (0) flac16; 2nd Set AUD:... (0)
Date User Comment