Browse Collections Artists Sources   Search Dates Setlists

Add Show    List Management    Forums    Help


Grateful Dead 03/29/69
Ice Palace, Las Vegas, NV
Comments Add Comment    Source Collectors    Add to Collection    Add to Want List    History
Source # 141435 Other Sources
Entered by Matt Vernon
Checksums flac-md5 , ffp
Disc Counts 0 / 0
Media Size
Date Circulated
Date Added
03/23/2018
03/23/2018
Source Summary flac16/48kHz; Recording Info: Master Soundboard Reel > Cassette > Dat 16/48; Transfer Info: Dat (16/48)(Sony PCM-R500) > Tascam DA-3000 (.wav 16/48) > Adobe Audition (16/48) > TLH flac1648 
  Archive
Source Information - Download Text | Download Zip
Grateful Dead
Ice Palace
Las Vegas, NV
Saturday March 29, 1969

Recording Info:
Master Soundboard Reel > Cassette > Dat 16/48

Transfer Info:
Dat (16/48)(Sony PCM-R500) > Tascam DA-3000 (.wav 16/48) > Adobe Audition (16/48) > TLH flac1648

Notes:
- Thanks to Tim Dalton for the source Dat
- Thanks to Charlie Miller for the transfer
- Thanks to Uli Teute, Rich Petlock and taperchuck for the soundboard source which supplies a 6:00 patch in "Dark Star"
- "The next tune we're going to do is something we wrote especially for the Ice Palace here in Las Vegas. We wrote it this morning."

Mastered by Scott Clugston
3/13/2018

t01 - Morning Dew
t02 - Good Morning Little Schoolgirl
t03 - Doin' That Rag
t04 - Dark Star >
t05 - St. Stephen >
t06 - The Eleven >
t07 - Turn On Your Lovelight



    length     expanded size    cdr  WAVE problems  fmt   ratio  filename
    10:05.800     116313644 B   cxx   --   ---xx   flac  0.5502  gd69-03-29 t01 Morning Dew.flac
     9:38.707     111111724 B   cxx   --   ---xx   flac  0.5563  gd69-03-29 t02 Good Morning Little Schoolgirl.flac
     7:39.480      88220204 B   cxx   --   ---xx   flac  0.5439  gd69-03-29 t03 Doin' That Rag.flac
    21:19.120     245591084 B   cxx   --   ---xx   flac  0.5454  gd69-03-29 t04 Dark Star.flac
     5:35.467      64409644 B   cxx   --   ---xx   flac  0.5469  gd69-03-29 t05 St. Stephen.flac
    11:52.053     136714284 B   cxx   --   ---xx   flac  0.5595  gd69-03-29 t06 The Eleven.flac
    17:41.379     203784796 B   cxx   --   ---xx   flac  0.5401  gd69-03-29 t07 Turn On Your Lovelight.flac
    83:52.006     966145380 B                            0.5481  (7 files)


Show Checksums
flac-md5
b020199a39f6973527ec9abbc070e1de *gd69-03-29 t01 Morning Dew.flac
98c02eeae8d1d3121162dff412092402 *gd69-03-29 t02 Good Morning Little Schoolgirl.flac
fc2fb63bdfa920eae00ec05c493fcd30 *gd69-03-29 t03 Doin' That Rag.flac
df2c1d76f484f5d92e54e085a03c6d3b *gd69-03-29 t04 Dark Star.flac
5ccf682b39b2aeef336a0d27274a5a4f *gd69-03-29 t05 St. Stephen.flac
3a1b3742836c0684ad9cfb361abe01a3 *gd69-03-29 t06 The Eleven.flac
988516a0133498b6d6e4cb65cf7990ae *gd69-03-29 t07 Turn On Your Lovelight.flac
ffp
gd69-03-29 t01 Morning Dew.flac:bd2ae2d01a9253255ed4833c9825ca90
gd69-03-29 t02 Good Morning Little Schoolgirl.flac:95f74428dda6fdcf729487a1b0b22972
gd69-03-29 t03 Doin' That Rag.flac:e88724f8d120bf53a76cc31e2d2fa2db
gd69-03-29 t04 Dark Star.flac:a7674d98e7b8966439f75631e15d8179
gd69-03-29 t05 St. Stephen.flac:bb167f17ee266ddcff56625b7da66452
gd69-03-29 t06 The Eleven.flac:319a5fe3cce40b990f191f3269a610e6
gd69-03-29 t07 Turn On Your Lovelight.flac:8835468f3981cf374d5fce35dd1049cb

Comments
Add Comment
Other Sources (comments)
SBD> ?> BOOT CD> CDR; EAC>... (0) flac16; Recording... (0) Fix for Charlie Miller... (0)
Date User Comment