Browse Collections Artists Sources   Search Dates

Add Show    List Management    Help


Grateful Dead 05/04/81
The Spectrum, Philadelphia, PA
Comments Add Comment    Source Collectors    Add to Collection    Add to Want List    History
Source # 141484 Other Sources
Entered by Matt Vernon
Checksums flac-md5 , ffp
Disc Counts 0 / 0
Media Size
Date Circulated
Date Added
03/26/2016
03/26/2018
Source Summary flac16; Source Info: Master Soundboard Cassette > Cassette (Latvala)> Dat 16/44.1(Latvala); Transfer Info: Dat (Sony PCM-R500)> Tascam DA-3000(.wav 16/44.1) > Adobe Audition 3.0 > TLH flac16 
  Archive
Source Information - Download Text | Download Zip
Spectrum
Philadelphia, PA
Monday May 4, 1981

Source Info:
Master Soundboard Cassette > Cassette (Latvala)> Dat 16/44.1(Latvala)

Transfer Info:
Dat (Sony PCM-R500)> Tascam DA-3000(.wav 16/44.1) > Adobe Audition 3.0 > TLH flac16

Notes:
- Thanks to Dick Latvala for being Dick Latvala (R.I.P.)
- Thanks to Charlie Miller for the source and the transfer
- Thanks to Nick Milner, Mark McCue and Alex Ford for the shnid90454 Nakamichi 700 source which supplies the crowd and first 0:03 of "Don't Ease Me In" (0:20 total), the crowd and first 0:04 of "Beat It On Down The Line" (0:09 total), the crowd and first 0:05 of "Jack-A-Roe" (0:11 total), the crowd and first 0:05 of "Althea" (0:10 total), the crowd and first 0:17 of "Looks Like Rain" (0:23 total), the crowd and first 0:05 of "To Lay Me Down" (0:24 total), a 5:59 patch in "Drums" and the noodle into "Nobodies Fault But Mine", as well as a 0:10 patch in the transition between "Black Peter" and "Sugar Magnolia"
- No space per se, Nobodies Fault space pretty much right out of "Drums"
- Nobodies Fault space included in "Nobodies Fault But Mine"
- Thanks to Joe B. Jones for his help with the pitch correction

Mastered by Scott Clugston
March 22, 2018

Set One:
t01 - Don't Ease Me In
t02 - Beat It On Down The Line
t03 - Jack-A-Roe >
t04 - Little Red Rooster
t05 - Cold Rain  & Snow
t06 - Mama Tried >
t07 - Mexicali Blues
t08 - Althea
t09 - Looks Like Rain
t10 - Tuning
t11 - Bertha >
t12 - Greatest Story Ever Told

Set Two:
t13 - China Cat Sunflower >
t14 - I Know You Rider >
t15 - Samson & Delilah
t16 - To Lay Me Down
t17 - Playin' In The Band >
t18 - Drums >
t19 - Nobodies Fault But Mine >
t20 - Lost Sailor >
t21 - Saint of Circumstance>
t22 - Black Peter>
t23 - Sugar Magnolia
Encore:
t24 - Brokedown Palace



    length     expanded size    cdr  WAVE problems  fmt   ratio  filename
     4:18.34       45591212 B   ---   --   ---xx   flac  0.5759  gd81-05-04 t01 Don't Ease Me In.flac
     4:00.15       42371324 B   ---   --   ---xx   flac  0.5817  gd81-05-04 t02 Beat It On Down The Line.flac
     4:36.63       48834620 B   ---   --   ---xx   flac  0.5834  gd81-05-04 t03 Jack-A-Roe.flac
     8:42.56       92212556 B   ---   --   ---xx   flac  0.5813  gd81-05-04 t04 Little Red Rooster.flac
     7:15.05       76745804 B   ---   --   ---xx   flac  0.5689  gd81-05-04 t05 Cold Rain & Snow.flac
     2:31.64       26786972 B   ---   --   ---xx   flac  0.5985  gd81-05-04 t06 Mama Tried.flac
     4:29.39       47543372 B   ---   --   ---xx   flac  0.5923  gd81-05-04 t07 Mexicali Blues.flac
     8:08.12       86111468 B   ---   --   ---xx   flac  0.5762  gd81-05-04 t08 Althea.flac
     8:51.58       93804860 B   ---   --   ---xx   flac  0.5715  gd81-05-04 t09 Looks Like Rain.flac
     1:55.67       20443628 B   ---   --   ---xx   flac  0.4694  gd81-05-04 t10 Tuning.flac
     6:56.69       73544732 B   ---   --   ---xx   flac  0.6201  gd81-05-04 t11 Bertha.flac
     3:59.02       42164348 B   ---   --   ---xx   flac  0.6330  gd81-05-04 t12 Greatest Story Ever Told.flac
     7:40.53       81268700 B   ---   --   ---xx   flac  0.6183  gd81-05-04 t13 China Cat Sunflower.flac
     5:51.41       62012876 B   ---   --   ---xx   flac  0.6267  gd81-05-04 t14 I Know You Rider.flac
     7:38.45       80897084 B   ---   --   ---xx   flac  0.6261  gd81-05-04 t15 Samson & Delilah.flac
    11:35.00      122598044 B   ---   --   ---xx   flac  0.5769  gd81-05-04 t16 To Lay Me Down.flac
    12:42.63      134565020 B   ---   --   ---xx   flac  0.6252  gd81-05-04 t17 Playin' In The Band.flac
     5:55.28       62687900 B   ---   --   ---xx   flac  0.5921  gd81-05-04 t18 Drums.flac
     3:57.24       41863292 B   ---   --   ---xx   flac  0.5883  gd81-05-04 t19 Nobodies Fault But Mine.flac
     6:48.65       72124124 B   ---   --   ---xx   flac  0.6089  gd81-05-04 t20 Lost Sailor.flac
     6:45.31       71514956 B   ---   --   ---xx   flac  0.6482  gd81-05-04 t21 Saint Of Circumstance.flac
     8:55.52       94496348 B   ---   --   ---xx   flac  0.6073  gd81-05-04 t22 Black Peter.flac
     9:16.02       98083148 B   ---   --   ---xx   flac  0.6362  gd81-05-04 t23 Sugar Magnolia.flac
     5:51.60       62057564 B   ---   --   ---xx   flac  0.6160  gd81-05-04 t24 Brokedown Palace.flac
   158:45.48     1680323952 B                            0.6014  (24 files)


Show Checksums
flac-md5
8b9977ff17878d8c7bf950ed42850bce *gd81-05-04 t01 Don't Ease Me In.flac
3b4c1f4dd16d2f378af3fc2c7388278a *gd81-05-04 t02 Beat It On Down The Line.flac
725fee324277f0a803ffe06e6818f5ab *gd81-05-04 t03 Jack-A-Roe.flac
9f1bde40cb797931d7359bda31349536 *gd81-05-04 t04 Little Red Rooster.flac
9b63bdd669401fba6d2807e453bb5c07 *gd81-05-04 t05 Cold Rain & Snow.flac
e6d8bafe242ed02596b3effb4476c94e *gd81-05-04 t06 Mama Tried.flac
eb9d0e19cbaadfe55771e651bbc7b57a *gd81-05-04 t07 Mexicali Blues.flac
15dd1085573821d88a713af5302bebb7 *gd81-05-04 t08 Althea.flac
bad4114081a8e514cabbc6eacce9faea *gd81-05-04 t09 Looks Like Rain.flac
950d77cbc52c797fa473f4743ad3119a *gd81-05-04 t10 Tuning.flac
60f479bb8de0d660873e90c89be7137a *gd81-05-04 t11 Bertha.flac
5134ca78b2a26981bb04d3ab009f1fc2 *gd81-05-04 t12 Greatest Story Ever Told.flac
e98081437b454cd95bbb072552a9f6e2 *gd81-05-04 t13 China Cat Sunflower.flac
e16e05abb9ea0e11ced8bcedfe3064eb *gd81-05-04 t14 I Know You Rider.flac
839e61b801cde481a38cbfde6d9a524b *gd81-05-04 t15 Samson & Delilah.flac
f4a2cf5a395a3e8d85d14baae41eefd7 *gd81-05-04 t16 To Lay Me Down.flac
8cfb46844327627f964fc4a396c744ef *gd81-05-04 t17 Playin' In The Band.flac
fb17d8b95b653999e09add56079219ca *gd81-05-04 t18 Drums.flac
0dcf144509df9687fe436b7b5747c3ea *gd81-05-04 t19 Nobodies Fault But Mine.flac
927f8013af6ab31ab29a6024ce228d5f *gd81-05-04 t20 Lost Sailor.flac
3c9eff952096557fe948b579068bca5b *gd81-05-04 t21 Saint Of Circumstance.flac
aa6e24c2b81a49dd9198949b693a222b *gd81-05-04 t22 Black Peter.flac
d5911cecc320112b4554ef0a140bc057 *gd81-05-04 t23 Sugar Magnolia.flac
a9f7bccdaa811b497bbbcd842e5d1cd5 *gd81-05-04 t24 Brokedown Palace.flac
ffp
gd81-05-04 t01 Don't Ease Me In.flac:c3ae74b6bc006d321f9ab5cd8637721b
gd81-05-04 t02 Beat It On Down The Line.flac:54f93190056c3e30aed739a5b245808e
gd81-05-04 t03 Jack-A-Roe.flac:da08f165432a0fdb6b5f03379a60c677
gd81-05-04 t04 Little Red Rooster.flac:db9138e5a6813da99579b9f24e3d3450
gd81-05-04 t05 Cold Rain & Snow.flac:8568130fdff1e8352f88eea3de6118a2
gd81-05-04 t06 Mama Tried.flac:f329e994a774f0444f58d6596add90b0
gd81-05-04 t07 Mexicali Blues.flac:f537c745c2c309a739632ae1509b634b
gd81-05-04 t08 Althea.flac:071da34703399171cbd3d0c34756cd0c
gd81-05-04 t09 Looks Like Rain.flac:c8ea078ef36ed01b17f918f7197ee30b
gd81-05-04 t10 Tuning.flac:fec23887bbae3ea4ce2017112cf35185
gd81-05-04 t11 Bertha.flac:4bfdc7b4d0604821069b89c585fb085a
gd81-05-04 t12 Greatest Story Ever Told.flac:a817a76b1d4752cd9eff5ee8a4f7dbc4
gd81-05-04 t13 China Cat Sunflower.flac:ccf5c04969e458f008d6b0f6c3ed1d67
gd81-05-04 t14 I Know You Rider.flac:f6bb773cc3b55765c3e3c00425e24504
gd81-05-04 t15 Samson & Delilah.flac:e6587b928ff1e31bf27a2cf18733d42a
gd81-05-04 t16 To Lay Me Down.flac:9144f1e821203a470da9bb10529b7756
gd81-05-04 t17 Playin' In The Band.flac:9547a861df14928655ffb0cfd1ac2c9b
gd81-05-04 t18 Drums.flac:720ce393569f0657fcc91d7bb8a858e4
gd81-05-04 t19 Nobodies Fault But Mine.flac:35824826f2337e30598193af2bda1164
gd81-05-04 t20 Lost Sailor.flac:07f7e08afbbd177b7df15f779c9633fc
gd81-05-04 t21 Saint Of Circumstance.flac:fde8cef3d8e4e11bc811f2303b223a77
gd81-05-04 t22 Black Peter.flac:73cb92989e5e57dbcc4572367c2eb641
gd81-05-04 t23 Sugar Magnolia.flac:81e0b1f67773ef5a3d0fcf06b4f27034
gd81-05-04 t24 Brokedown Palace.flac:aa3fd9066c6682ca52d95441e8bccc95

Comments
Add Comment
Other Sources (comments)
Master Soundboard Cassette... (0) Recording by Ohr Weinberg.... (0) flac16; 1st Gen... (0) flac24; Cassette... (0) flac16; 2 source... (0) flac24; Source Info:... (0) flac16/48kHz; Source... (0)
Date User Comment