Browse Collections Artists Sources   Search Dates

Add Show    List Management    Help


Grateful Dead 08/29/83
Silva Hall, Hult Center, Eugene, OR
Comments Add Comment    Source Collectors    Add to Collection    Add to Want List    History
Source # 141485 Other Sources
Entered by Matt Vernon
Checksums ffp , flac-md5
Disc Counts 0 / 0
Media Size
Date Circulated
Date Added
03/26/2018
03/26/2018
Source Summary flac24; Source Info: Otto Rice's Master (FOB) Audience Cassettes; Sennheiser 421 mics > Sony D5; Transfer Info: Master Cassettes (Nakamichi BX-300) > Apogee Mini Me 24/96 > Apogee Mini DAC > Adobe Audition 3.0 (24/96)> TLH flac2496 
  Archive
Source Information - Download Text | Download Zip
Grateful Dead
Silva Hall
Hult Center for the Performing Arts
Eugene, OR
Monday August 29, 1983

Source Info:
Otto Rice's Master (FOB) Audience Cassettes; Sennheiser 421 mics > Sony D5

Transfer Info:
Master Cassettes (Nakamichi BX-300) > Apogee Mini Me 24/96 > Apogee Mini DAC > Adobe Audition 3.0 (24/96)> TLH flac2496

Notes:
- Thanks to Otto Rice for the master cassette source
- Thanks to Matt Smith for the transfer
- Thanks to Charlie Miller for coordinating this effort
- Thanks to Andrew F for the shnid105523 Nakamichi 300 source which supplies a 0:29 patch in "Bird Song", as well as a 3:32 patch in "Drums > Space"
- There are some minor level fluctuations throughout the show
- Transitions smoothed

Mastered by Scott Clugston
March 24, 2018

Set One:
s1 t01 - Crowd
s1 t02 - Shakedown Street
s1 t03 - New Minglewood Blues
s1 t04 - Friend of the Devil
s1 t05 - Hell in a Bucket
s1 t06 - Bird Song
s1 t07 - It's All Over Now
s1 t08 - Might as Well

Set Two:
s2 t01 - China Cat Sunflower >
s2 t02 - I Know You Rider
s2 t03 - Estimated Prophet >
s2 t04 - Eyes of the World >
s2 t05 - Drums >
s2 t06 - Space >
s2 t07 - The Wheel >
s2 t08 - The Other One >
s2 t09 - Goin' Down the Road Feeling Bad >
s2 t10 - Johnny B. Goode
Encore:
s2 t11 - US Blues



    length     expanded size    cdr  WAVE problems  fmt   ratio  filename
     0:49.640      28592684 B   cxx   --   ---xx   flac  0.6938  gd83-08-29 s1 t01 Crowd_Tuning.flac
    13:13.613     457121324 B   cxx   --   ---xx   flac  0.7182  gd83-08-29 s1 t02 Shakedown Street.flac
     8:38.013     298375724 B   cxx   --   ---xx   flac  0.7178  gd83-08-29 s1 t03 New Minglewood Blues.flac
     9:36.387     331998764 B   cxx   --   ---xx   flac  0.7118  gd83-08-29 s1 t04 Friend Of The Devil.flac
     5:21.467     185164844 B   cxx   --   ---xx   flac  0.7189  gd83-08-29 s1 t05 Hell In A Bucket.flac
    10:32.707     364439084 B   cxx   --   ---xx   flac  0.7096  gd83-08-29 s1 t06 Bird Song.flac
     8:58.520     310187564 B   cxx   --   ---xx   flac  0.7182  gd83-08-29 s1 t07 It's All Over Now.flac
     4:31.382     156316196 B   cxx   --   ---xx   flac  0.7283  gd83-08-29 s1 t08 Might as Well.flac
     8:02.253     277777964 B   cxx   --   ---xx   flac  0.7471  gd83-08-29 s2 t01 China Cat Sunflower.flac
     6:57.333     240384044 B   cxx   --   ---xx   flac  0.7418  gd83-08-29 s2 t02 I Know You Rider.flac
    13:36.187     470123564 B   cxx   --   ---xx   flac  0.7578  gd83-08-29 s2 t03 Estimated Prophet.flac
    10:09.947     351329324 B   cxx   --   ---xx   flac  0.7662  gd83-08-29 s2 t04 Eyes Of The World.flac
    11:03.440     382141484 B   cxx   --   ---xx   flac  0.6982  gd83-08-29 s2 t05 Drums.flac
     7:41.253     265681964 B   cxx   --   ---xx   flac  0.7438  gd83-08-29 s2 t06 Space.flac
     5:19.453     184005164 B   cxx   --   ---xx   flac  0.7642  gd83-08-29 s2 t07 The Wheel.flac
     6:38.613     229601324 B   cxx   --   ---xx   flac  0.7711  gd83-08-29 s2 t08 The Other One.flac
     7:47.360     269199404 B   cxx   --   ---xx   flac  0.7736  gd83-08-29 s2 t09 Goin' Down The Road Feeling Bad.flac
     3:57.027     136527404 B   cxx   --   ---xx   flac  0.7759  gd83-08-29 s2 t10 Johnny B. Goode.flac
     5:10.772     179004572 B   cxx   --   ---xx   flac  0.7749  gd83-08-29 s2 t11 US Blues.flac
   148:05.367    5117972396 B                            0.7373  (19 files)


Show Checksums
ffp
gd83-08-29 s1 t01 Crowd_Tuning.flac:3abf6fb844bb67a990d2b6366e8f08a2
gd83-08-29 s1 t02 Shakedown Street.flac:6a576d1eeb380e24ef196e56e373cf69
gd83-08-29 s1 t03 New Minglewood Blues.flac:13a70980e1543d8f6c318ba2d2c60654
gd83-08-29 s1 t04 Friend Of The Devil.flac:bbfd6444a807842c86d96d20b737d573
gd83-08-29 s1 t05 Hell In A Bucket.flac:ed2483b0ee59d0f39a35cf885a0b6287
gd83-08-29 s1 t06 Bird Song.flac:94b9b9b976d6872b8a929e21ea8de59d
gd83-08-29 s1 t07 It's All Over Now.flac:a1f25f0c7dc97a3e6a4f3dda21ba4e25
gd83-08-29 s1 t08 Might as Well.flac:ba7ff59619d0b541691df7462bcf999d
gd83-08-29 s2 t01 China Cat Sunflower.flac:48d1dfa5214ab1587f7f365c4037ae6f
gd83-08-29 s2 t02 I Know You Rider.flac:7904a0fbb2d1e76b3f4a2e661b40a838
gd83-08-29 s2 t03 Estimated Prophet.flac:389647d328182fb01d6024ed114c118a
gd83-08-29 s2 t04 Eyes Of The World.flac:2b280b6a44c709605fb5560640c24a02
gd83-08-29 s2 t05 Drums.flac:7350da2c65dab7615889526615c44e5c
gd83-08-29 s2 t06 Space.flac:66dd5b01f141ec4d2ed128aef6249552
gd83-08-29 s2 t07 The Wheel.flac:2d5ae37bac507f3ffc7b26fb404dbc2c
gd83-08-29 s2 t08 The Other One.flac:c701656934ea4507e8ed4ed897de92be
gd83-08-29 s2 t09 Goin' Down The Road Feeling Bad.flac:34b18b0700360632fe302538ed4efad7
gd83-08-29 s2 t10 Johnny B. Goode.flac:3b7d9ea8fbdd16a49617d39e699bb5a2
gd83-08-29 s2 t11 US Blues.flac:9d08cffba2e11e89dc284aea1f80ffdc
flac-md5
cd4acc354f60a0ffeb354b54529e0dcc *gd83-08-29 s1 t01 Crowd_Tuning.flac
761f11f6c0c7b611c34f330aa3d35d6a *gd83-08-29 s1 t02 Shakedown Street.flac
50be8d2a4a093c772aa62679b1685000 *gd83-08-29 s1 t03 New Minglewood Blues.flac
9a55c2da7c6c193a3f25830280af7bb5 *gd83-08-29 s1 t04 Friend Of The Devil.flac
ca155bd478e33bd2884b514684919c94 *gd83-08-29 s1 t05 Hell In A Bucket.flac
2fc3642ffff397ab9002b6bd5dcec34f *gd83-08-29 s1 t06 Bird Song.flac
63b754ef81d9116d8a1e1893eb64fe8b *gd83-08-29 s1 t07 It's All Over Now.flac
1e91fd52ecd95d237098c8cf647562d2 *gd83-08-29 s1 t08 Might as Well.flac
8e91e74d9982dd0f803f5d74f3c8edba *gd83-08-29 s2 t01 China Cat Sunflower.flac
7fc780b70491d473c016c7ae091a816c *gd83-08-29 s2 t02 I Know You Rider.flac
fb96f2f1501088e02ebe7a75b9e130d6 *gd83-08-29 s2 t03 Estimated Prophet.flac
041ff0fd1fd0da6838099c5292e3b85f *gd83-08-29 s2 t04 Eyes Of The World.flac
c24e3fdf3075c315b609f6f857ae1d02 *gd83-08-29 s2 t05 Drums.flac
a36b0122d0c6a6617b0d0ac83c9286b4 *gd83-08-29 s2 t06 Space.flac
96be793650d8951b0c461340db19145f *gd83-08-29 s2 t07 The Wheel.flac
f892b705c75487b37bee4821e0c68a7d *gd83-08-29 s2 t08 The Other One.flac
eec2bf2d1ae049de586d10f4f97e6db0 *gd83-08-29 s2 t09 Goin' Down The Road Feeling Bad.flac
018a9bf72e5d7cec4e7954a711eaa4f6 *gd83-08-29 s2 t10 Johnny B. Goode.flac
8b2ce6f4af61d05ebbdf4f48546abce0 *gd83-08-29 s2 t11 US Blues.flac

Comments
Add Comment
Other Sources (comments)
SBD>Cass(2)>DAT>CDR; Seeded... (0) flac16; Source:... (0) flac16; FOB AUD:... (0) flac16; Source: 2... (0) flac16; Soundboard >... (1) flac16/48kHz;... (0) flac16; Source Info:... (0) flac16/44.1 ... (0) flac24/48 Source:... (0)
Date User Comment