Browse Collections Artists Sources   Search Dates

Add Show    List Management    Help


Grateful Dead 08/29/83
Silva Hall, Hult Center, Eugene, OR
Comments Add Comment    Source Collectors    Add to Collection    Add to Want List    History
Source # 141486 Other Sources
Entered by Matt Vernon
Checksums ffp , flac-md5
Disc Counts 0 / 0
Media Size
Date Circulated
Date Added
03/26/2018
03/26/2018
Source Summary flac16; Source Info: Otto Rice's Master (FOB) Audience Cassettes; Sennheiser 421 mics > Sony D5; Transfer Info: Master Cassettes (Nakamichi BX-300)> Apogee Mini Me 24/96 > Apogee Mini DAC > Adobe Audition 3.0 (24/96)> TLH flac2496; This is a 16/44 fileset. 24-bit > 16-bit via dBpoweramp 
  Archive
Source Information - Download Text | Download Zip
Grateful Dead
Silva Hall
Hult Center for the Performing Arts
Eugene, OR
Monday August 29, 1983

This is a 16/44 fileset. 24-bit > 16-bit via dBpoweramp

Source Info:
Otto Rice's Master (FOB) Audience Cassettes; Sennheiser 421 mics > Sony D5

Transfer Info:
Master Cassettes (Nakamichi BX-300)> Apogee Mini Me 24/96 > Apogee Mini DAC > Adobe Audition 3.0 (24/96)> TLH flac2496

Notes:
- Thanks to Otto Rice for the master cassette source
- Thanks to Matt Smith for the transfer
- Thanks to Charlie Miller for coordinating this effort
- Thanks to Andrew F for the shnid105523 Nakamichi 300 source which supplies a 0:29 patch in "Bird Song", as well as a 3:32 patch in "Drums > Space"
- There are some minor level fluctuations throughout the show
- Transitions smoothed

Mastered by Scott Clugston
March 24, 2018

Set One:
s1 t01 - Crowd
s1 t02 - Shakedown Street
s1 t03 - New Minglewood Blues
s1 t04 - Friend of the Devil
s1 t05 - Hell in a Bucket
s1 t06 - Bird Song
s1 t07 - It's All Over Now
s1 t08 - Might as Well

Set Two:
s2 t01 - China Cat Sunflower >
s2 t02 - I Know You Rider
s2 t03 - Estimated Prophet >
s2 t04 - Eyes of the World >
s2 t05 - Drums >
s2 t06 - Space >
s2 t07 - The Wheel >
s2 t08 - The Other One >
s2 t09 - Goin' Down the Road Feeling Bad >
s2 t10 - Johnny B. Goode
Encore:
s2 t11 - US Blues



    length     expanded size    cdr  WAVE problems  fmt   ratio  filename
     0:49.48        8756540 B   ---   --   ---xx   flac  0.5733  gd83-08-29 s1 t01 Crowd_Tuning.flac
    13:13.46      139993436 B   ---   --   ---xx   flac  0.6371  gd83-08-29 s1 t02 Shakedown Street.flac
     8:38.01       91377596 B   ---   --   ---xx   flac  0.6357  gd83-08-29 s1 t03 New Minglewood Blues.flac
     9:36.29      101674652 B   ---   --   ---xx   flac  0.6161  gd83-08-29 s1 t04 Friend Of The Devil.flac
     5:21.35       56706764 B   ---   --   ---xx   flac  0.6381  gd83-08-29 s1 t05 Hell In A Bucket.flac
    10:32.53      111609500 B   ---   --   ---xx   flac  0.6260  gd83-08-29 s1 t06 Bird Song.flac
     8:58.39       94994972 B   ---   --   ---xx   flac  0.6340  gd83-08-29 s1 t07 It's All Over Now.flac
     4:31.28       47870300 B   ---   --   ---xx   flac  0.6664  gd83-08-29 s1 t08 Might as Well.flac
     8:02.19       85069532 B   ---   --   ---xx   flac  0.7149  gd83-08-29 s2 t01 China Cat Sunflower.flac
     6:57.25       73617644 B   ---   --   ---xx   flac  0.7001  gd83-08-29 s2 t02 I Know You Rider.flac
    13:36.14      143975372 B   ---   --   ---xx   flac  0.7220  gd83-08-29 s2 t03 Estimated Prophet.flac
    10:09.71      107594636 B   ---   --   ---xx   flac  0.7474  gd83-08-29 s2 t04 Eyes Of The World.flac
    11:03.33      117030860 B   ---   --   ---xx   flac  0.6552  gd83-08-29 s2 t05 Drums.flac
     7:41.19       81365132 B   ---   --   ---xx   flac  0.6864  gd83-08-29 s2 t06 Space.flac
     5:19.34       56351612 B   ---   --   ---xx   flac  0.7417  gd83-08-29 s2 t07 The Wheel.flac
     6:38.46       70315436 B   ---   --   ---xx   flac  0.7631  gd83-08-29 s2 t08 The Other One.flac
     7:47.27       82442348 B   ---   --   ---xx   flac  0.7700  gd83-08-29 s2 t09 Goin' Down The Road Feeling Bad.flac
     3:57.02       41811548 B   ---   --   ---xx   flac  0.7775  gd83-08-29 s2 t10 Johnny B. Goode.flac
     5:10.59       54822812 B   ---   --   ---xx   flac  0.7752  gd83-08-29 s2 t11 US Blues.flac
   148:05.28     1567380692 B                            0.6867  (19 files)


Show Checksums
ffp
gd83-08-29 s1 t01 Crowd_Tuning.flac:4c843368c6ce627bf1129bafed770ba6
gd83-08-29 s1 t02 Shakedown Street.flac:af0c7fdfd3a49d6e84ccd1347dcd851b
gd83-08-29 s1 t03 New Minglewood Blues.flac:5ea09d405282bdc135dc69062b554785
gd83-08-29 s1 t04 Friend Of The Devil.flac:c6fdcf32d7cd4fb98a4616184c5d53eb
gd83-08-29 s1 t05 Hell In A Bucket.flac:38350b33211ded6abfb8d6dcba46b7ae
gd83-08-29 s1 t06 Bird Song.flac:9bd579dc5332a3f6e1d340177a764118
gd83-08-29 s1 t07 It's All Over Now.flac:d3881fead22676757b5d04c7e5ddd731
gd83-08-29 s1 t08 Might as Well.flac:75944f4e22996f25bbd5d0c2ae19aa9f
gd83-08-29 s2 t01 China Cat Sunflower.flac:bc2807ddd59b28aabf588d834e939fbf
gd83-08-29 s2 t02 I Know You Rider.flac:f286e9a26dc293dfe2859e42e4916457
gd83-08-29 s2 t03 Estimated Prophet.flac:12ebae1f81564386c0f744db655086c9
gd83-08-29 s2 t04 Eyes Of The World.flac:4f24e5c21959e400b58fe27497b61180
gd83-08-29 s2 t05 Drums.flac:b98e4af66574434936743680d656d0eb
gd83-08-29 s2 t06 Space.flac:a4bbd604d9a28ed480de5e99008b75f6
gd83-08-29 s2 t07 The Wheel.flac:8ad50d4610515379f02130cd19a88cb2
gd83-08-29 s2 t08 The Other One.flac:79769b68fee4f9e1c9f9b8136c235c59
gd83-08-29 s2 t09 Goin' Down The Road Feeling Bad.flac:f69080c080dde156776fffd03788f120
gd83-08-29 s2 t10 Johnny B. Goode.flac:82b8e1e5d11d0b92d91b938592e544b1
gd83-08-29 s2 t11 US Blues.flac:0fe2992e6b83a6b9a19ce23df5c3cb03
flac-md5
964d64d31c66489f0f7a5a228ab610a8 *gd83-08-29 s1 t01 Crowd_Tuning.flac
e5582e7f8003bd4c6c59532fa78411f5 *gd83-08-29 s1 t02 Shakedown Street.flac
f497beb72c7069d99fb3cabd30bd9ff6 *gd83-08-29 s1 t03 New Minglewood Blues.flac
0d7cff5df1e3e1fe514bf304ba9ff1cd *gd83-08-29 s1 t04 Friend Of The Devil.flac
fbf13d6216dca5ddde2bbf919c3143de *gd83-08-29 s1 t05 Hell In A Bucket.flac
dd70df86fb01a8b2c68ef0fc975f53e1 *gd83-08-29 s1 t06 Bird Song.flac
d522a09c2f69995053278a9ce0a74f49 *gd83-08-29 s1 t07 It's All Over Now.flac
60ce0dc4dcd5d12e9e09b4d1ed003b45 *gd83-08-29 s1 t08 Might as Well.flac
280f25c936e3a2f316c829c340975acb *gd83-08-29 s2 t01 China Cat Sunflower.flac
ecf860e5ef81215d8ee24c20201e0669 *gd83-08-29 s2 t02 I Know You Rider.flac
8cc689e7ad812aed280bfe7dfb1d02bc *gd83-08-29 s2 t03 Estimated Prophet.flac
2f92b0faa9999aea240fcaa306211caf *gd83-08-29 s2 t04 Eyes Of The World.flac
fe26b2e66656e93ec338377dcab7b160 *gd83-08-29 s2 t05 Drums.flac
4da0c723d950ee80296c7046ca0b6a7e *gd83-08-29 s2 t06 Space.flac
a72aaed1a67506b03cf94b90e396030b *gd83-08-29 s2 t07 The Wheel.flac
f288bdb6f9d99a831fdd49d52591a66e *gd83-08-29 s2 t08 The Other One.flac
f3b9a852165a797e566b8abc8416c0c7 *gd83-08-29 s2 t09 Goin' Down The Road Feeling Bad.flac
bba05d6e3d425e02d8eb50a68c1eef11 *gd83-08-29 s2 t10 Johnny B. Goode.flac
923f688c29e880db37cb69152eec700e *gd83-08-29 s2 t11 US Blues.flac

Comments
Add Comment
Other Sources (comments)
SBD>Cass(2)>DAT>CDR; Seeded... (0) flac16; Source:... (0) flac16; FOB AUD:... (0) flac16; Source: 2... (0) flac16; Soundboard >... (1) flac16/48kHz;... (0) flac24; Source Info:... (0) flac16/44.1 ... (0) flac24/48 Source:... (0)
Date User Comment