Browse Collections Artists Sources   Search Dates

Add Show    List Management    Help


Grateful Dead 08/30/83
Silva Hall, Hult Center, Eugene, OR
Comments Add Comment    Source Collectors    Add to Collection    Add to Want List    History
Source # 141487 Other Sources
Entered by Matt Vernon
Checksums flac-md5 , ffp
Disc Counts 0 / 0
Media Size
Date Circulated
Date Added
03/26/2018
03/26/2018
Source Summary flac24; Source Info: Otto Rice's Master (FOB) Audience Cassettes; Sennheiser 421 mics > Sony D5; Transfer Info: Master Cassettes (Nakamichi BX-300)> Apogee Mini Me 24/96 > Apogee Mini DAC > Adobe Audition 3.0 (24/96)> TLH flac2496 
  Archive
Source Information - Download Text | Download Zip
Grateful Dead
Silva Hall
Hult Center for the Performing Arts
Eugene, OR
Tuesday August 30, 1983

Source Info:
Otto Rice's Master (FOB) Audience Cassettes; Sennheiser 421 mics > Sony D5

Transfer Info:
Master Cassettes (Nakamichi BX-300)> Apogee Mini Me 24/96 > Apogee Mini DAC > Adobe Audition 3.0 (24/96)> TLH flac2496

Notes:
- Thanks to Otto Rice for the master cassette source
- Thanks to Matt Smith for the transfer
- Thanks to Charlie Miller for coordinating this effort
- Thanks to daweez and d5scott for the shnid111590 Sennheiser 421 source which supplies the crowd and beginning of "Little Red Rooster" (1:04 total), a 0:23 patch at the beginning of "Deal", as well as a 0:17 patch in "Drums > Space"
- There are some minor level fluctuations throughout the show
- Transitions smoothed

Mastered by Scott Clugston
March 24, 2018

Set One:
s1 t01 - Feel Like A Stranger
s1 t02 - Candyman
s1 t03 - My Brother Esau
s1 t04 - Dire Wolf
s1 t05 - Little Red Rooster
s1 t06 - Tennessee Jed
s1 t07 - Lazy Lightning >
s1 t08 - Supplication >
s1 t09 - Deal

Set Two:
s2 t01 - Touch Of Grey >
s2 t02 - Samson & Delilah
s2 t03 - Terrapin Station >
s2 t04 - Drums >
s2 t05 - Space >
s2 t06 - Throwing Stones >
s2 t07 - Not Fade Away >
s2 t08 - Wharf Rat >
s2 t09 - Sugar Magnolia
Encore:
s2 t10 - Brokedown Palace



    length     expanded size    cdr  WAVE problems  fmt   ratio  filename
     8:08.347     281287724 B   cxx   --   ---xx   flac  0.7293  gd83-08-30 s1 t01 Feel Like A Stranger.flac
     6:43.347     232327724 B   cxx   --   ---xx   flac  0.7268  gd83-08-30 s1 t02 Candyman.flac
     5:18.813     183636524 B   cxx   --   ---xx   flac  0.7298  gd83-08-30 s1 t03 My Brother Esau.flac
     3:28.347     120007724 B   cxx   --   ---xx   flac  0.7335  gd83-08-30 s1 t04 Dire Wolf.flac
     8:59.653     310840364 B   cxx   --   ---xx   flac  0.6710  gd83-08-30 s1 t05 Little Red Rooster.flac
     8:09.000     281664044 B   cxx   --   ---xx   flac  0.7229  gd83-08-30 s1 t06 Tennessee Jed.flac
     3:22.000     116352044 B   cxx   --   ---xx   flac  0.7332  gd83-08-30 s1 t07 Lazy Lightning.flac
     8:40.800     299980844 B   cxx   --   ---xx   flac  0.7348  gd83-08-30 s1 t08 Supplication.flac
     8:19.855     287916752 B   cxx   --   ---xx   flac  0.7187  gd83-08-30 s1 t09 Deal.flac
     6:20.880     219386924 B   cxx   --   ---xx   flac  0.7521  gd83-08-30 s2 t01 Touch Of Grey.flac
     7:53.280     272609324 B   cxx   --   ---xx   flac  0.7536  gd83-08-30 s2 t02 Samson & Delilah.flac
    16:01.947     554081324 B   cxx   --   ---xx   flac  0.7417  gd83-08-30 s2 t03 Terrapin Station.flac
     8:49.000     304704044 B   cxx   --   ---xx   flac  0.7340  gd83-08-30 s2 t04 Drums.flac
    10:36.493     366620204 B   cxx   --   ---xx   flac  0.7232  gd83-08-30 s2 t05 Space.flac
     8:01.467     277324844 B   cxx   --   ---xx   flac  0.7484  gd83-08-30 s2 t06 Throwing Stones.flac
     7:54.187     273131564 B   cxx   --   ---xx   flac  0.7462  gd83-08-30 s2 t07 Not Fade Away.flac
     9:55.827     343196204 B   cxx   --   ---xx   flac  0.7454  gd83-08-30 s2 t08 Wharf Rat.flac
     8:38.347     298567724 B   cxx   --   ---xx   flac  0.7570  gd83-08-30 s2 t09 Sugar Magnolia.flac
     5:47.389     200096090 B   cxx   --   ---xx   flac  0.7485  gd83-08-30 s2 t10 Brokedown Palace.flac
   151:08.978    5223731990 B                            0.7340  (19 files)


Show Checksums
flac-md5
c9ff3a9caefabc91713401ca79f95107 *gd83-08-30 s1 t01 Feel Like A Stranger.flac
f5e47dd1c2b00ba1f4d8652c923d2865 *gd83-08-30 s1 t02 Candyman.flac
2ebc16db9a8cd534371250929db6c9e2 *gd83-08-30 s1 t03 My Brother Esau.flac
a48bc5e25e3c7e0f0acc96bf73e48d07 *gd83-08-30 s1 t04 Dire Wolf.flac
69f6733f487524041191a082a3f9eafb *gd83-08-30 s1 t05 Little Red Rooster.flac
00ccf1baf6964adefae300e315534591 *gd83-08-30 s1 t06 Tennessee Jed.flac
5c0004bdaec597863a48d2fce8134b46 *gd83-08-30 s1 t07 Lazy Lightning.flac
9f561dfc2f8891c081ba0526f3c391ef *gd83-08-30 s1 t08 Supplication.flac
5cd7703a50f57179b263fedd2fe382c3 *gd83-08-30 s1 t09 Deal.flac
38be621af36e5f3903fbdc0897eb252a *gd83-08-30 s2 t01 Touch Of Grey.flac
f259c9f8c060852791f69c6b9f2eae30 *gd83-08-30 s2 t02 Samson & Delilah.flac
0c530b58aa51e69836fe221d9d3b0890 *gd83-08-30 s2 t03 Terrapin Station.flac
88b714b68437d22491d64ce636058142 *gd83-08-30 s2 t04 Drums.flac
71669da1c5315a2559f004ab30dfd195 *gd83-08-30 s2 t05 Space.flac
0e43c2a78d2649eba92e3a88c0b073c2 *gd83-08-30 s2 t06 Throwing Stones.flac
0485a6cafed862605b1b1d99a8e9b5db *gd83-08-30 s2 t07 Not Fade Away.flac
1ba9a5fe39e5a323443b4a7bd570fb80 *gd83-08-30 s2 t08 Wharf Rat.flac
b9aef68051ba40e72b2326877753d157 *gd83-08-30 s2 t09 Sugar Magnolia.flac
604afa7f248614df090e4de0250a20de *gd83-08-30 s2 t10 Brokedown Palace.flac
ffp
gd83-08-30 s1 t01 Feel Like A Stranger.flac:497033b28418c5019f86323f4401f4c8
gd83-08-30 s1 t02 Candyman.flac:3771aee003c5741ebfa6e6bd3e9ee99b
gd83-08-30 s1 t03 My Brother Esau.flac:ee510b704e70a321fbb845c62ff81b20
gd83-08-30 s1 t04 Dire Wolf.flac:9e7b134176a407c55a1e93553399a6ed
gd83-08-30 s1 t05 Little Red Rooster.flac:7808278dde61a984d46c3046345251fb
gd83-08-30 s1 t06 Tennessee Jed.flac:8d30281139aba27bd3a5823271fb0c85
gd83-08-30 s1 t07 Lazy Lightning.flac:f091105d509b2e96b95312ac521c6613
gd83-08-30 s1 t08 Supplication.flac:030376002d6e92a8de513ed010824714
gd83-08-30 s1 t09 Deal.flac:79a5de8bedffeb041fd4d8e979d5341a
gd83-08-30 s2 t01 Touch Of Grey.flac:c227db01f2a5bd4316410e3c5fa3266c
gd83-08-30 s2 t02 Samson & Delilah.flac:5464b3c7c8aedc4ff80be62f5632c5c6
gd83-08-30 s2 t03 Terrapin Station.flac:07a174bcf7d0163aaebcaa5135c5f975
gd83-08-30 s2 t04 Drums.flac:849fe789201c1399676a3f6b87015c8e
gd83-08-30 s2 t05 Space.flac:1dcc8eaf848d6aa35e0653d90bb976a8
gd83-08-30 s2 t06 Throwing Stones.flac:c33c1b6a5957569912e3e57e6aa1a692
gd83-08-30 s2 t07 Not Fade Away.flac:a96ffb87759dbed6f3ae0385f7bc2ed4
gd83-08-30 s2 t08 Wharf Rat.flac:bbf2ffdbc2b23018fe4d81fd8a38d845
gd83-08-30 s2 t09 Sugar Magnolia.flac:46a567e678be634a6342e9cf33076bc6
gd83-08-30 s2 t10 Brokedown Palace.flac:a447d48fe78e49e60fbc508013d9061b

Comments
Add Comment
Other Sources (comments)
AUD (Senn. 421?s)> MC> DAT>... (2) Keysey intro: MSC>Cass. x... (0) flac16; Source:... (1) flac16; Source: 2... (0) flac16; Source Info:... (0) flac16/44.1kh ... (0) flac24/48 Source:... (0)
Date User Comment