Browse Collections Artists Sources   Search Dates

Add Show    List Management    Help


Grateful Dead 08/30/83
Silva Hall, Hult Center, Eugene, OR
Comments Add Comment    Source Collectors    Add to Collection    Add to Want List    History
Source # 141488 Other Sources
Entered by Matt Vernon
Checksums flac-md5 , ffp
Disc Counts 0 / 0
Media Size
Date Circulated
Date Added
03/26/2018
03/26/2018
Source Summary flac16; Source Info: Otto Rice's Master (FOB) Audience Cassettes; Sennheiser 421 mics > Sony D5; Transfer Info: Master Cassettes (Nakamichi BX-300)> Apogee Mini Me 24/96 > Apogee Mini DAC > Adobe Audition 3.0 (24/96)> TLH flac2496; This is a 16/44 fileset. 24-bit > 16-bit via dBpoweramp 
  Archive
Source Information - Download Text | Download Zip
Grateful Dead
Silva Hall
Hult Center for the Performing Arts
Eugene, OR
Tuesday August 30, 1983

Thi sis a 16/44 fileset. 24-bit > 16-bit via dBpoweramp

Source Info:
Otto Rice's Master (FOB) Audience Cassettes; Sennheiser 421 mics > Sony D5

Transfer Info:
Master Cassettes (Nakamichi BX-300)> Apogee Mini Me 24/96 > Apogee Mini DAC > Adobe Audition 3.0 (24/96)> TLH flac2496

Notes:
- Thanks to Otto Rice for the master cassette source
- Thanks to Matt Smith for the transfer
- Thanks to Charlie Miller for coordinating this effort
- Thanks to daweez and d5scott for the shnid111590 Sennheiser 421 source which supplies the crowd and beginning of "Little Red Rooster" (1:04 total), a 0:23 patch at the beginning of "Deal", as well as a 0:17 patch in "Drums > Space"
- There are some minor level fluctuations throughout the show
- Transitions smoothed

Mastered by Scott Clugston
March 24, 2018

Set One:
s1 t01 - Feel Like A Stranger
s1 t02 - Candyman
s1 t03 - My Brother Esau
s1 t04 - Dire Wolf
s1 t05 - Little Red Rooster
s1 t06 - Tennessee Jed
s1 t07 - Lazy Lightning >
s1 t08 - Supplication >
s1 t09 - Deal

Set Two:
s2 t01 - Touch Of Grey >
s2 t02 - Samson & Delilah
s2 t03 - Terrapin Station >
s2 t04 - Drums >
s2 t05 - Space >
s2 t06 - Throwing Stones >
s2 t07 - Not Fade Away >
s2 t08 - Wharf Rat >
s2 t09 - Sugar Magnolia
Encore:
s2 t10 - Brokedown Palace



    length     expanded size    cdr  WAVE problems  fmt   ratio  filename
     8:08.26       86144396 B   ---   --   ---xx   flac  0.6656  gd83-08-30 s1 t01 Feel Like A Stranger.flac
     6:43.26       71150396 B   ---   --   ---xx   flac  0.6491  gd83-08-30 s1 t02 Candyman.flac
     5:18.61       56238716 B   ---   --   ---xx   flac  0.6590  gd83-08-30 s1 t03 My Brother Esau.flac
     3:28.26       36752396 B   ---   --   ---xx   flac  0.6727  gd83-08-30 s1 t04 Dire Wolf.flac
     8:59.49       95194892 B   ---   --   ---xx   flac  0.6097  gd83-08-30 s1 t05 Little Red Rooster.flac
     8:09.00       86259644 B   ---   --   ---xx   flac  0.6382  gd83-08-30 s1 t06 Tennessee Jed.flac
     3:22.00       35632844 B   ---   --   ---xx   flac  0.6755  gd83-08-30 s1 t07 Lazy Lightning.flac
     8:40.60       91869164 B   ---   --   ---xx   flac  0.6832  gd83-08-30 s1 t08 Supplication.flac
     8:19.64       88174172 B   ---   --   ---xx   flac  0.6469  gd83-08-30 s1 t09 Deal.flac
     6:20.66       67187276 B   ---   --   ---xx   flac  0.7119  gd83-08-30 s2 t01 Touch Of Grey.flac
     7:53.21       83486636 B   ---   --   ---xx   flac  0.7172  gd83-08-30 s2 t02 Samson & Delilah.flac
    16:01.71      169687436 B   ---   --   ---xx   flac  0.6725  gd83-08-30 s2 t03 Terrapin Station.flac
     8:49.00       93315644 B   ---   --   ---xx   flac  0.6352  gd83-08-30 s2 t04 Drums.flac
    10:36.37      112277468 B   ---   --   ---xx   flac  0.6201  gd83-08-30 s2 t05 Space.flac
     8:01.35       84930764 B   ---   --   ---xx   flac  0.6985  gd83-08-30 s2 t06 Throwing Stones.flac
     7:54.14       83646572 B   ---   --   ---xx   flac  0.6921  gd83-08-30 s2 t07 Not Fade Away.flac
     9:55.62      105103868 B   ---   --   ---xx   flac  0.6890  gd83-08-30 s2 t08 Wharf Rat.flac
     8:38.26       91436396 B   ---   --   ---xx   flac  0.7262  gd83-08-30 s2 t09 Sugar Magnolia.flac
     5:47.30       61281404 B   ---   --   ---xx   flac  0.7065  gd83-08-30 s2 t10 Brokedown Palace.flac
   151:08.74     1599770084 B                            0.6703  (19 files)


Show Checksums
flac-md5
f41738290e1eb9639ea68e11b9dfd69b *gd83-08-30 s1 t01 Feel Like A Stranger.flac
18ff53a99ecbff6ba26243a800f7012c *gd83-08-30 s1 t02 Candyman.flac
ca34d57d663a3a7b4de301c6eab67825 *gd83-08-30 s1 t03 My Brother Esau.flac
a793073edb778092b3bffa598e02330d *gd83-08-30 s1 t04 Dire Wolf.flac
d1351fa7769da0cd77752cef5ddfbf24 *gd83-08-30 s1 t05 Little Red Rooster.flac
2534972424427dd04cdea8c276c3b345 *gd83-08-30 s1 t06 Tennessee Jed.flac
840f04e4636f8981041b883c113dbfb9 *gd83-08-30 s1 t07 Lazy Lightning.flac
c86ccb2c500edd8d2aa0a40e89b29627 *gd83-08-30 s1 t08 Supplication.flac
cf517800cd8837adec812299c9f3c67a *gd83-08-30 s1 t09 Deal.flac
3f8e8cb940e7c038791313ea268f3d2a *gd83-08-30 s2 t01 Touch Of Grey.flac
3b880c73cffce6759ccee35812272792 *gd83-08-30 s2 t02 Samson & Delilah.flac
50b69c59319e61362712688072e0dfbd *gd83-08-30 s2 t03 Terrapin Station.flac
75bd926e4f0ce65ea9a503791ec162da *gd83-08-30 s2 t04 Drums.flac
2a36cf17703c7430d3389d92d44d3090 *gd83-08-30 s2 t05 Space.flac
37b5adff4730b8da2279ad6967b63ec9 *gd83-08-30 s2 t06 Throwing Stones.flac
4d48131b12f2b923da52acc65508ccb4 *gd83-08-30 s2 t07 Not Fade Away.flac
dc5ba5245d5d130c0c9dd2f42ae2e2ab *gd83-08-30 s2 t08 Wharf Rat.flac
aa90767351c2404edf9ef435bb7b6b54 *gd83-08-30 s2 t09 Sugar Magnolia.flac
58cace3c4948e3b7fafa14e5ec545b73 *gd83-08-30 s2 t10 Brokedown Palace.flac
ffp
gd83-08-30 s1 t01 Feel Like A Stranger.flac:dc345645f8b17ea13671be29968d2eec
gd83-08-30 s1 t02 Candyman.flac:3508e1db0b35bd5809ce46f626ec4192
gd83-08-30 s1 t03 My Brother Esau.flac:33da6fd131d77c33e2cd9416e71cec89
gd83-08-30 s1 t04 Dire Wolf.flac:0c2539b77683216f1b9f3132ddcc8568
gd83-08-30 s1 t05 Little Red Rooster.flac:cfad09c958ede6edc4d7f7d965514f31
gd83-08-30 s1 t06 Tennessee Jed.flac:fc2e22893fe97c9e3d74e5bb8b1d0a0a
gd83-08-30 s1 t07 Lazy Lightning.flac:9be05b4730ef308b257a4a5c76f57923
gd83-08-30 s1 t08 Supplication.flac:686dad388a935a359950725ac0118cb1
gd83-08-30 s1 t09 Deal.flac:bcde106fa2095388fde40ff7e91ca5ee
gd83-08-30 s2 t01 Touch Of Grey.flac:aa08559e16bcfba3eed2fdf3ad103f09
gd83-08-30 s2 t02 Samson & Delilah.flac:2342dcab6a8e40c2c97a7bfd0ec8acba
gd83-08-30 s2 t03 Terrapin Station.flac:351fcc11e6d43b9746497f918a8a79d2
gd83-08-30 s2 t04 Drums.flac:dd307fbc3cd7441e8952888ded5f0fc2
gd83-08-30 s2 t05 Space.flac:88276f8cc0433ef4a97b543decdef973
gd83-08-30 s2 t06 Throwing Stones.flac:44b11bb4fb6800ac87115fd4b9d10c04
gd83-08-30 s2 t07 Not Fade Away.flac:68ff04433da824b011c0685ef216bbeb
gd83-08-30 s2 t08 Wharf Rat.flac:3717dedc02a475de3aaf10abcb84a882
gd83-08-30 s2 t09 Sugar Magnolia.flac:2ece75952b3b002e790310fe387834d6
gd83-08-30 s2 t10 Brokedown Palace.flac:f77f4afecf036a28861bb9e28048f79e

Comments
Add Comment
Other Sources (comments)
AUD (Senn. 421?s)> MC> DAT>... (2) Keysey intro: MSC>Cass. x... (0) flac16; Source:... (1) flac16; Source: 2... (0) flac24; Source Info:... (0) flac16/44.1kh ... (0) flac24/48 Source:... (0)
Date User Comment